<?xml version="1.0" standalone="no"?>
<!DOCTYPE svg PUBLIC "-//W3C//DTD SVG 1.1//EN" "http://www.w3.org/Graphics/SVG/1.1/DTD/svg11.dtd" >
<svg xmlns="http://www.w3.org/2000/svg" xmlns:xlink="http://www.w3.org/1999/xlink" version="1.1">
<metadata>
Created by FontForge 20160405 at Tue Jul 12 20:01:53 2016
 By www-data
Copyright (c) 2007 by Silas Dilworth. All rights reserved.
</metadata>
<defs>
<font id="BreuerText-Medium" horiz-adv-x="228" >
  <font-face 
    font-family="Breuer Text Light"
    font-weight="600"
    font-stretch="normal"
    units-per-em="1000"
    panose-1="2 0 8 6 4 0 0 2 0 4"
    ascent="750"
    descent="-250"
    x-height="500"
    cap-height="650"
    bbox="-45 -197 962 885"
    underline-thickness="50"
    underline-position="-150"
    unicode-range="U+0020-2265"
  />
<missing-glyph horiz-adv-x="450" 
d="M50 650h350v-650h-350v650zM370 40v570l-129 -285zM80 610v-570l128 285zM225 361l116 259h-232zM109 30h232l-116 258z" />
    <glyph glyph-name=".notdef" horiz-adv-x="450" 
d="M50 650h350v-650h-350v650zM370 40v570l-129 -285zM80 610v-570l128 285zM225 361l116 259h-232zM109 30h232l-116 258z" />
    <glyph glyph-name=".null" horiz-adv-x="0" 
 />
    <glyph glyph-name="nonmarkingreturn" horiz-adv-x="0" 
 />
    <glyph glyph-name="space" unicode=" " horiz-adv-x="230" 
 />
    <glyph glyph-name="exclam" unicode="!" horiz-adv-x="261" 
d="M60 650h141l-31 -452h-80zM70 120h120v-120h-120v120z" />
    <glyph glyph-name="quotedbl" unicode="&#x22;" horiz-adv-x="334" 
d="M123 400h-55l-28 250h112zM265 400h-55l-28 250h112z" />
    <glyph glyph-name="numbersign" unicode="#" horiz-adv-x="561" 
d="M497 161h-97l-14 -161h-76l14 161h-117l-14 -161h-75l14 161h-97l6 66h97l17 197h-97l6 66h97l14 160h75l-14 -160h117l14 160h76l-14 -160h97l-6 -66h-97l-17 -197h97zM213 227h117l17 197h-117z" />
    <glyph glyph-name="dollar" unicode="$" horiz-adv-x="516" 
d="M215 -20v89q-48 4 -80 16.5t-51 33t-26.5 49t-7.5 64.5h108q0 -20 4 -34t15 -23t30.5 -13t49.5 -4q32 0 52 4t31 12t14.5 19.5t3.5 27.5q0 17 -4.5 29.5t-17.5 21t-35.5 14t-59.5 8.5q-54 4 -89.5 14t-56.5 27.5t-29.5 43t-8.5 60.5q0 69 41 105.5t117 43.5v82h87v-82
q82 -8 118 -45.5t36 -117.5h-108q0 15 -3 29t-13 24t-28.5 16t-48.5 6q-47 0 -68.5 -16t-21.5 -46q0 -32 19 -48.5t77 -20.5q62 -5 102 -15t63 -27t31.5 -43t8.5 -63q0 -27 -4.5 -53t-21 -46.5t-49.5 -34.5t-89 -18v-89h-87z" />
    <glyph glyph-name="percent" unicode="%" horiz-adv-x="643" 
d="M155 0h-76l408 650h77zM112 524q0 -29 3 -47t10 -28.5t19.5 -14.5t30.5 -4q34 0 48.5 17t14.5 69t-14.5 69t-48.5 17t-48.5 -16t-14.5 -62zM405 141q0 -29 3 -47t10 -28.5t19.5 -14.5t30.5 -4q34 0 48.5 17t14.5 69t-14.5 69t-48.5 17t-48.5 -16t-14.5 -62zM603 133
q0 -41 -8 -69t-25 -44.5t-42.5 -23.5t-59.5 -7q-35 0 -60.5 7t-42 23.5t-24.5 44.5t-8 69q0 82 32.5 113.5t102.5 31.5q69 0 102 -31.5t33 -113.5zM310 516q0 -41 -8 -69t-25 -45t-42.5 -24t-59.5 -7q-35 0 -60.5 7t-42 24t-24.5 45t-8 69q0 82 32.5 113.5t102.5 31.5
q69 0 102 -31.5t33 -113.5z" />
    <glyph glyph-name="ampersand" unicode="&#x26;" horiz-adv-x="588" 
d="M484 285v-124q0 -42 21.5 -56.5t62.5 -14.5v-90q-50 0 -84 12t-57 46q-21 -29 -63.5 -49t-101.5 -20q-111 0 -166.5 44.5t-55.5 142.5q0 59 29.5 98t75.5 59q-39 20 -64 58t-25 89q0 90 53 135.5t152 45.5q113 0 160.5 -44.5t47.5 -141.5h-108q0 49 -24.5 71.5
t-75.5 22.5q-48 0 -72.5 -21.5t-24.5 -72.5q0 -48 21.5 -74t62.5 -26h310v-90h-74zM261 79q63 0 89 28t26 84v94h-135q-38 0 -65.5 -26t-27.5 -77q0 -59 30 -81t83 -22z" />
    <glyph glyph-name="quotesingle" unicode="'" horiz-adv-x="192" 
d="M123 400h-55l-28 250h112z" />
    <glyph glyph-name="parenleft" unicode="(" horiz-adv-x="320" 
d="M139 285q0 -121 38.5 -224.5t102.5 -180.5h-81q-72 81 -110.5 185t-38.5 220t38.5 220t110.5 185h81q-64 -77 -102.5 -180.5t-38.5 -224.5z" />
    <glyph glyph-name="parenright" unicode=")" horiz-adv-x="320" 
d="M181 285q0 121 -38.5 224.5t-102.5 180.5h81q72 -81 110.5 -185t38.5 -220t-38.5 -220t-110.5 -185h-81q64 77 102.5 180.5t38.5 224.5z" />
    <glyph glyph-name="asterisk" unicode="*" horiz-adv-x="515" 
d="M441 582l38 -120l-188 -17l143 -125l-102 -73l-75 174l-75 -174l-102 73l143 125l-188 17l38 120l163 -97l-42 185h126l-42 -185z" />
    <glyph glyph-name="plus" unicode="+" horiz-adv-x="510" 
d="M50 315h165v165h80v-165h165v-80h-165v-166h-80v166h-165v80z" />
    <glyph glyph-name="comma" unicode="," horiz-adv-x="220" 
d="M50 120h120l-50 -220h-70v220z" />
    <glyph glyph-name="hyphen" unicode="-" horiz-adv-x="350" 
d="M50 324h250v-90h-250v90z" />
    <glyph glyph-name="period" unicode="." horiz-adv-x="220" 
d="M50 120h120v-120h-120v120z" />
    <glyph glyph-name="slash" unicode="/" horiz-adv-x="318" 
d="M199 690h89l-169 -730h-89z" />
    <glyph glyph-name="zero" unicode="0" horiz-adv-x="558" 
d="M160 214q0 -40 7 -65.5t21.5 -40t37 -20t53.5 -5.5t53.5 5.5t37 20t21.5 40t7 65.5v222q0 40 -7 65.5t-21.5 40t-37 20t-53.5 5.5t-53.5 -5.5t-37 -20t-21.5 -40t-7 -65.5v-222zM508 218q0 -124 -56.5 -176.5t-172.5 -52.5t-172.5 52.5t-56.5 176.5v215q0 62 14 105.5
t42.5 70.5t71.5 39.5t101 12.5t101 -12.5t71.5 -39.5t42.5 -70.5t14 -105.5v-215z" />
    <glyph glyph-name="one" unicode="1" horiz-adv-x="362" 
d="M152 0v556h-102v54l144 40h68v-650h-110z" />
    <glyph glyph-name="two" unicode="2" horiz-adv-x="537" 
d="M51 456q0 98 52.5 151.5t166.5 53.5q63 0 105 -14.5t67 -40.5t35.5 -63t10.5 -83q0 -58 -24 -96t-60 -65t-78 -47t-78 -41.5t-60 -48.5t-24 -68h333v-94h-447v63q0 66 24 109t60.5 73t79 51.5t79 43.5t60.5 48.5t24 67.5q0 56 -22.5 83.5t-84.5 27.5t-85.5 -27.5
t-23.5 -83.5h-110z" />
    <glyph glyph-name="three" unicode="3" horiz-adv-x="557" 
d="M395 188q0 28 -8.5 47t-22.5 30t-32.5 15.5t-38.5 4.5h-71v90h66q45 0 69.5 22.5t24.5 71.5q0 47 -25.5 72.5t-85.5 25.5q-62 0 -87.5 -27.5t-25.5 -83.5h-110q0 98 53.5 151.5t169.5 53.5q60 0 102 -13.5t68.5 -38.5t38.5 -60.5t12 -80.5q0 -48 -27.5 -82t-72.5 -51
q54 -17 84.5 -53t30.5 -98q0 -46 -11 -82t-38 -61t-72 -38.5t-112 -13.5q-63 0 -107 13.5t-71 39.5t-39 64t-12 88h110q0 -56 26.5 -83.5t92.5 -27.5t93.5 24.5t27.5 80.5z" />
    <glyph glyph-name="four" unicode="4" horiz-adv-x="560" 
d="M340 142h-310v85l279 423h141v-418h80v-90h-80v-142h-110v142zM340 232v318l-207 -318h207z" />
    <glyph glyph-name="five" unicode="5" horiz-adv-x="558" 
d="M177 380q30 19 65 30.5t70 11.5q45 0 81.5 -10t62 -33.5t39 -63.5t13.5 -100q0 -55 -12.5 -97t-39.5 -70.5t-71 -43.5t-107 -15q-120 0 -174 52.5t-54 152.5h110q0 -56 28 -83.5t90 -27.5t91 30t29 102t-28.5 101t-87.5 29q-28 0 -56.5 -13t-45.5 -27h-113l30 345h380
v-94h-286z" />
    <glyph glyph-name="six" unicode="6" horiz-adv-x="555" 
d="M160 352q31 19 67 29t82 10q106 0 151 -48t45 -139q0 -48 -11.5 -87.5t-38 -68t-69.5 -44t-107 -15.5q-66 0 -110 16t-70.5 45t-37.5 71t-11 95v220q0 115 53.5 170t168.5 55q118 0 169.5 -48t51.5 -144h-110q0 51 -24.5 74.5t-86.5 23.5q-58 0 -85 -28t-27 -102v-85z
M282 316q-35 0 -66 -10.5t-56 -28.5v-61q0 -37 5.5 -62.5t19 -41t36 -22.5t55.5 -7q69 0 94 28.5t25 88.5t-23.5 88t-89.5 28z" />
    <glyph glyph-name="seven" unicode="7" horiz-adv-x="472" 
d="M111 0l219 556h-305v94h422v-82l-220 -568h-116z" />
    <glyph glyph-name="eight" unicode="8" horiz-adv-x="558" 
d="M279 -11q-123 0 -181 42t-58 142q0 67 31.5 105t82.5 55q-46 18 -72 53.5t-26 92.5q0 100 57 141t166 41q108 0 165.5 -41t57.5 -141q0 -57 -26.5 -92.5t-71.5 -53.5q51 -17 82.5 -55t31.5 -105q0 -100 -58 -142t-181 -42zM279 567q-59 0 -86 -20t-27 -77q0 -31 7 -50.5
t21.5 -31t35.5 -15.5t49 -4t49 4t35 15.5t21.5 31t7.5 50.5q0 57 -27 77t-86 20zM279 83q66 0 96.5 22.5t30.5 77.5q0 57 -29.5 80.5t-97.5 23.5t-97.5 -23.5t-29.5 -80.5q0 -55 30.5 -77.5t96.5 -22.5z" />
    <glyph glyph-name="nine" unicode="9" horiz-adv-x="555" 
d="M283 83q58 0 85 28t27 102v84q-32 -18 -68 -28t-81 -10q-53 0 -90.5 12t-61 36t-34 59t-10.5 80q0 48 11.5 87.5t38 68t69.5 44t107 15.5q66 0 110 -16t70.5 -45t37.5 -71.5t11 -94.5v-220q0 -115 -53.5 -170t-168.5 -55q-118 0 -169.5 48t-51.5 144h110
q0 -51 24.5 -74.5t86.5 -23.5zM273 334q35 0 66 10t56 28v62q0 37 -5.5 62t-19 41t-36 23t-55.5 7q-69 0 -94 -28.5t-25 -88.5t23.5 -88t89.5 -28z" />
    <glyph glyph-name="colon" unicode=":" horiz-adv-x="220" 
d="M50 120h120v-120h-120v120zM50 420h120v-120h-120v120z" />
    <glyph glyph-name="semicolon" unicode=";" horiz-adv-x="220" 
d="M50 420h120v-120h-120v120zM50 120h120l-50 -220h-70v220z" />
    <glyph glyph-name="less" unicode="&#x3c;" horiz-adv-x="352" 
d="M40 325l182 365h90l-184 -365l184 -365h-90z" />
    <glyph glyph-name="equal" unicode="=" horiz-adv-x="510" 
d="M50 335v80h410v-80h-410zM50 135v80h410v-80h-410z" />
    <glyph glyph-name="greater" unicode="&#x3e;" horiz-adv-x="352" 
d="M130 -40h-90l184 365l-184 365h90l182 -365z" />
    <glyph glyph-name="question" unicode="?" horiz-adv-x="535" 
d="M215 346q41 0 71 3.5t49.5 16t28.5 36.5t9 65q0 55 -28 78.5t-79 23.5q-50 0 -78 -23t-28 -79h-110q0 95 51 144.5t162 49.5q114 0 168 -47t54 -147q0 -52 -12 -88.5t-34.5 -60.5t-55.5 -36.5t-76 -16.5l-7 -69h-70zM205 120h120v-120h-120v120z" />
    <glyph glyph-name="at" unicode="@" horiz-adv-x="774" 
d="M60 316q0 64 19.5 115t60 86.5t102 54.5t145.5 19q83 0 144.5 -19t102 -54.5t60.5 -86.5t20 -115v-146q0 -128 -80.5 -201.5t-246.5 -73.5q-164 0 -245.5 73.5t-81.5 201.5v146zM136 174q0 -207 251 -207t251 207v138q0 207 -251 207t-251 -207v-138zM228 173
q0 51 34.5 74.5t89.5 26.5l110 6v35q0 32 -17.5 45t-59.5 13q-38 0 -55.5 -14.5t-17.5 -49.5h-70q0 37 11 61.5t30.5 39t45.5 20t56 5.5q73 0 110 -26t37 -94v-240h-51l-8 29q-26 -17 -54 -27t-60 -10q-61 0 -96 26t-35 80zM361 130q30 0 55.5 10t45.5 23v64l-104 -8
q-30 -2 -44.5 -11t-14.5 -32q0 -46 62 -46z" />
    <glyph glyph-name="A" unicode="A" horiz-adv-x="530" 
d="M365 141h-201l-35 -141h-114l180 650h139l181 -650h-114zM186 231h157l-77 319h-2z" />
    <glyph glyph-name="B" unicode="B" horiz-adv-x="555" 
d="M65 650h219q113 0 162 -40.5t49 -127.5q0 -55 -23.5 -92t-61.5 -53q55 -18 80 -57t25 -100q0 -90 -50.5 -135t-164.5 -45h-235v650zM296 94q54 0 79.5 21t25.5 74q0 55 -28.5 75.5t-76.5 20.5h-121v-191h121zM175 556v-181h117q48 0 70.5 22t22.5 69q0 48 -24 69t-75 21
h-111z" />
    <glyph glyph-name="C" unicode="C" horiz-adv-x="545" 
d="M278 83q60 0 86 25.5t26 88.5h110q0 -110 -53 -159t-169 -49q-59 0 -102 13t-71 40.5t-41.5 72t-13.5 107.5v206q0 126 55 179.5t173 53.5q116 0 169 -49t53 -159h-110q0 60 -26 87t-86 27q-62 0 -90 -27.5t-28 -100.5v-228q0 -73 28 -100.5t90 -27.5z" />
    <glyph glyph-name="D" unicode="D" horiz-adv-x="567" 
d="M175 556v-462h97q37 0 63 7t42 22.5t23 40.5t7 61v205q0 43 -9 68.5t-26 38t-42 16t-58 3.5h-97zM65 0v650h209q60 0 105 -9.5t76 -35t46.5 -70.5t15.5 -116v-187q0 -71 -15.5 -116t-46.5 -71t-76 -35.5t-105 -9.5h-209z" />
    <glyph glyph-name="E" unicode="E" horiz-adv-x="500" 
d="M65 650h385v-94h-275v-181h240v-90h-240v-191h275v-94h-385v650z" />
    <glyph glyph-name="F" unicode="F" horiz-adv-x="461" 
d="M65 0v650h366v-94h-256v-181h221v-90h-221v-285h-110z" />
    <glyph glyph-name="G" unicode="G" horiz-adv-x="565" 
d="M278 -11q-59 0 -102 13t-71 40.5t-41.5 72t-13.5 107.5v206q0 126 55 179.5t173 53.5q116 0 169 -49t53 -159h-110q0 60 -26 87t-86 27q-62 0 -90 -27.5t-28 -100.5v-228q0 -38 7.5 -62.5t22.5 -39t38 -20.5t55 -6q62 0 89.5 24.5t27.5 89.5v88h-118v90h228v-375h-55
l-18 51q-29 -31 -65.5 -46.5t-93.5 -15.5z" />
    <glyph glyph-name="H" unicode="H" horiz-adv-x="572" 
d="M507 0h-110v285h-222v-285h-110v650h110v-275h222v275h110v-650z" />
    <glyph glyph-name="I" unicode="I" horiz-adv-x="240" 
d="M65 650h110v-650h-110v650z" />
    <glyph glyph-name="J" unicode="J" horiz-adv-x="359" 
d="M75 556v94h219v-500q0 -40 -6.5 -70t-25.5 -50.5t-52 -30.5t-86 -10q-26 0 -48.5 3t-45.5 8v94q17 -5 40.5 -8t45.5 -3q36 0 52 16t16 52v405h-109z" />
    <glyph glyph-name="K" unicode="K" horiz-adv-x="511" 
d="M265 335l236 -335h-127q-38 56 -67 98.5t-50 73t-35.5 51t-23.5 33.5q-21 30 -23 30v-286h-110v650h110v-276l192 276h129z" />
    <glyph glyph-name="L" unicode="L" horiz-adv-x="417" 
d="M65 650h110v-556h217v-94h-327v650z" />
    <glyph glyph-name="M" unicode="M" horiz-adv-x="724" 
d="M404 0h-84l-153 531l6 -178v-353h-108v650h156l140 -493h2l140 493h156v-650h-108v353l6 178z" />
    <glyph glyph-name="N" unicode="N" horiz-adv-x="579" 
d="M514 0h-138l-210 514q1 -18 2 -43.5t1.5 -53t1 -53.5t0.5 -44v-320h-106v650h138l210 -514q0 19 -1 44.5t-2 51.5t-1.5 49.5t-0.5 38.5v330h106v-650z" />
    <glyph glyph-name="O" unicode="O" horiz-adv-x="564" 
d="M160 214q0 -75 30 -103t92 -28t92 28t30 103v222q0 75 -30 103t-92 28t-92 -28t-30 -103v-222zM514 215q0 -61 -13.5 -104t-42 -70t-72.5 -39.5t-104 -12.5t-104 12.5t-72.5 39.5t-42 70t-13.5 104v220q0 61 13.5 104t42 70t72.5 39.5t104 12.5t104 -12.5t72.5 -39.5
t42 -70t13.5 -104v-220z" />
    <glyph glyph-name="P" unicode="P" horiz-adv-x="548" 
d="M283 326q30 0 51.5 5t35 17.5t19.5 35t6 57.5t-6 57.5t-19.5 35t-35 17.5t-51.5 5h-108v-230h108zM65 650h216q57 0 100 -8.5t71 -32t42 -64t14 -103.5q0 -59 -13.5 -98.5t-41.5 -63.5t-70 -34t-100 -10h-108v-236h-110v650z" />
    <glyph glyph-name="Q" unicode="Q" horiz-adv-x="564" 
d="M514 215q0 -109 -44 -162t-141 -62q4 -26 19 -34t40 -8h56l-23 -55h-65q-49 0 -81.5 21.5t-39.5 75.5q-97 9 -141 61.5t-44 162.5v220q0 61 13.5 104t42 70t72.5 39.5t104 12.5t104 -12.5t72.5 -39.5t42 -70t13.5 -104v-220zM160 214q0 -75 30 -103t92 -28t92 28t30 103
v222q0 75 -30 103t-92 28t-92 -28t-30 -103v-222z" />
    <glyph glyph-name="R" unicode="R" horiz-adv-x="557" 
d="M65 650h214q57 0 100 -8.5t71.5 -32t43 -64t14.5 -103.5q0 -81 -26 -125.5t-80 -63.5l120 -253h-121l-109 237h-117v-237h-110v650zM281 327q30 0 52 4.5t35.5 17.5t20 35t6.5 57t-6.5 57.5t-20 35t-35.5 17.5t-52 5h-106v-229h106z" />
    <glyph glyph-name="S" unicode="S" horiz-adv-x="554" 
d="M380 473q0 51 -25 72.5t-85 21.5q-57 0 -84.5 -20.5t-27.5 -68.5q0 -25 5 -43t20 -30.5t41 -20.5t68 -14q63 -9 104 -23.5t65 -36.5t33.5 -52.5t9.5 -72.5q0 -53 -15 -90.5t-44.5 -61t-73.5 -34t-101 -10.5q-56 0 -99 10t-72 33.5t-44 61t-15 91.5h110q0 -57 28 -79.5
t92 -22.5q66 0 94 22.5t28 79.5q0 23 -5.5 40t-21 29t-43.5 20.5t-74 15.5q-51 8 -89 21.5t-62.5 36t-36.5 54.5t-12 77q0 85 53.5 133.5t167.5 48.5t167.5 -42.5t53.5 -145.5h-110z" />
    <glyph glyph-name="T" unicode="T" horiz-adv-x="458" 
d="M174 556h-154v94h418v-94h-154v-556h-110v556z" />
    <glyph glyph-name="U" unicode="U" horiz-adv-x="570" 
d="M170 650v-448q0 -66 29 -92.5t86 -26.5t86 26.5t29 92.5v448h110v-444q0 -62 -14.5 -104t-43 -67t-70.5 -35.5t-97 -10.5t-97 10.5t-70.5 35.5t-43 67t-14.5 104v444h110z" />
    <glyph glyph-name="V" unicode="V" horiz-adv-x="530" 
d="M266 110l135 540h114l-181 -650h-139l-180 650h114l135 -540h2z" />
    <glyph glyph-name="W" unicode="W" horiz-adv-x="818" 
d="M409 540l-95 -540h-151l-133 650h112l97 -540h2l97 540h142l97 -540h2l97 540h112l-133 -650h-151z" />
    <glyph glyph-name="X" unicode="X" horiz-adv-x="503" 
d="M251 422h1l111 228h124l-175 -316l181 -334h-123l-118 245h-1l-118 -245h-123l181 334l-175 316h124z" />
    <glyph glyph-name="Y" unicode="Y" horiz-adv-x="514" 
d="M202 246l-187 404h120l121 -295h2l121 295h120l-187 -404v-246h-110v246z" />
    <glyph glyph-name="Z" unicode="Z" horiz-adv-x="508" 
d="M55 650h403v-85l-285 -471h295v-94h-423v84l284 472h-274v94z" />
    <glyph glyph-name="bracketleft" unicode="[" horiz-adv-x="304" 
d="M70 690h184v-60h-104v-690h104v-60h-184v810z" />
    <glyph glyph-name="backslash" unicode="\" horiz-adv-x="318" 
d="M288 -40h-89l-169 730h89z" />
    <glyph glyph-name="bracketright" unicode="]" horiz-adv-x="304" 
d="M234 -120h-184v60h104v690h-104v60h184v-810z" />
    <glyph glyph-name="asciicircum" unicode="^" horiz-adv-x="484" 
d="M143 351h-93l146 299h94l144 -299h-93l-98 212h-2z" />
    <glyph glyph-name="underscore" unicode="_" horiz-adv-x="475" 
d="M50 90h375v-90h-375v90z" />
    <glyph glyph-name="grave" unicode="`" horiz-adv-x="235" 
d="M188 565h-67l-76 120h108z" />
    <glyph glyph-name="a" unicode="a" horiz-adv-x="516" 
d="M215 205q-35 -5 -50.5 -21t-15.5 -44t18.5 -44.5t58.5 -16.5q43 0 72 11t55 33v99zM219 -11q-95 0 -137 38.5t-42 104.5q0 137 164 149l149 10v51q0 38 -18.5 58.5t-75.5 20.5q-54 0 -74 -21t-20 -59h-108q0 90 50 130t152 40q111 0 156.5 -40.5t45.5 -128.5v-342h-74
l-22 43q-25 -20 -61.5 -37t-84.5 -17z" />
    <glyph glyph-name="b" unicode="b" horiz-adv-x="538" 
d="M168 670v-205q32 22 66.5 34t72.5 12q42 0 76.5 -8.5t58.5 -32.5t37.5 -66.5t13.5 -110.5v-86q0 -68 -13.5 -110.5t-37.5 -66.5t-58.5 -32.5t-76.5 -8.5q-43 0 -80 14t-71 40l-22 -43h-74v670h108zM168 123q26 -23 57.5 -33.5t64.5 -10.5q47 0 71 29t24 104v76
q0 39 -6 64.5t-18 40.5t-30 21.5t-41 6.5q-33 0 -64.5 -10.5t-57.5 -33.5v-254z" />
    <glyph glyph-name="c" unicode="c" horiz-adv-x="514" 
d="M361 327q-2 55 -23.5 74.5t-73.5 19.5q-32 0 -53 -6.5t-34 -22.5t-18.5 -44.5t-5.5 -71.5v-52q0 -44 5.5 -72t18.5 -44t34 -22.5t53 -6.5q52 0 73.5 19t23.5 75h108q0 -52 -13 -87t-39 -56.5t-64.5 -31t-88.5 -9.5q-56 0 -97 11t-68 38t-40.5 72.5t-13.5 113.5v52
q0 68 13.5 113.5t41 72.5t68.5 38t96 11q50 0 88.5 -9.5t64.5 -31t39 -56.5t13 -87h-108z" />
    <glyph glyph-name="d" unicode="d" horiz-adv-x="538" 
d="M478 670v-670h-74l-22 43q-34 -26 -71 -40t-80 -14q-42 0 -76.5 8.5t-58.5 32.5t-37.5 66.5t-13.5 110.5v86q0 68 13.5 110.5t37.5 66.5t58.5 32.5t76.5 8.5q38 0 72.5 -12t66.5 -34v205h108zM370 377q-26 23 -57.5 33.5t-64.5 10.5q-23 0 -41 -6.5t-30 -21.5t-18 -40.5
t-6 -64.5v-76q0 -75 24 -104t71 -29q33 0 64.5 10.5t57.5 33.5v254z" />
    <glyph glyph-name="e" unicode="e" horiz-adv-x="511" 
d="M363 288q0 34 -2.5 59.5t-13 41.5t-31 24t-55.5 8q-34 0 -55 -7.5t-33 -23t-16 -41t-4 -61.5h210zM261 79q30 0 55 1t47 3t42.5 5t41.5 7v-88q-39 -8 -82.5 -13t-96.5 -5q-55 0 -97 10.5t-70 37t-42 72t-14 115.5v52q0 68 14 113t41 72t67.5 38.5t93.5 11.5q50 0 89 -11
t66 -38t41 -72t14 -114v-64h-318q0 -38 5 -63t17.5 -41t33 -22.5t52.5 -6.5z" />
    <glyph glyph-name="f" unicode="f" horiz-adv-x="334" 
d="M309 588q-11 2 -24.5 5t-33.5 3q-26 0 -36.5 -13t-10.5 -36v-47h85v-90h-85v-410h-108v410h-71v75l71 15v45q0 73 31.5 107t97.5 34q26 0 47.5 -3t36.5 -8v-87z" />
    <glyph glyph-name="g" unicode="g" horiz-adv-x="538" 
d="M370 47q-32 -22 -66.5 -34.5t-72.5 -12.5q-42 0 -76.5 8.5t-58.5 32.5t-37.5 66.5t-13.5 110.5v75q0 68 13.5 110.5t37.5 66.5t58.5 32.5t76.5 8.5q43 0 80 -14t71 -40l22 43h74v-499q0 -94 -51 -137.5t-158 -43.5q-35 0 -78.5 4.5t-79.5 14.5v93q39 -11 78.5 -16.5
t78.5 -5.5q54 0 78 19t24 72v46zM370 377q-26 23 -57.5 33.5t-64.5 10.5q-23 0 -41 -6.5t-30 -21.5t-18 -40.5t-6 -64.5v-65q0 -75 24 -104t71 -29q33 0 64.5 10.5t57.5 33.5v243z" />
    <glyph glyph-name="h" unicode="h" horiz-adv-x="531" 
d="M168 465q38 25 73.5 35.5t79.5 10.5q87 0 121 -42.5t34 -138.5v-330h-108v330q0 54 -21 72.5t-64 18.5q-26 0 -58 -10.5t-57 -33.5v-377h-108v670h108v-205z" />
    <glyph glyph-name="i" unicode="i" 
d="M60 500h108v-500h-108v500zM60 670h108v-108h-108v108z" />
    <glyph glyph-name="j" unicode="j" 
d="M168 -39q0 -71 -29 -106t-100 -35q-26 0 -47.5 3t-36.5 8v90q11 -2 24.5 -5t33.5 -3q26 0 36.5 13t10.5 36v538h108v-539zM60 670h108v-108h-108v108z" />
    <glyph glyph-name="k" unicode="k" horiz-adv-x="477" 
d="M168 0h-108v670h108v-372h2l158 202h127l-194 -234q51 -67 103 -133.5t103 -132.5h-131l-166 230h-2v-230z" />
    <glyph glyph-name="l" unicode="l" 
d="M60 670h108v-670h-108v670z" />
    <glyph glyph-name="m" unicode="m" horiz-adv-x="783" 
d="M156 457q36 26 70 40t76 14q48 0 76 -13.5t49 -40.5q35 23 72 38.5t81 15.5q43 0 71 -10.5t44 -32t22 -56t6 -82.5v-330h-108v330q0 54 -15.5 72.5t-55.5 18.5q-23 0 -49 -11.5t-50 -32.5v-377h-108v330q0 54 -15.5 72.5t-55.5 18.5q-20 0 -47.5 -11.5t-50.5 -32.5v-377
h-108v500h74z" />
    <glyph glyph-name="n" unicode="n" horiz-adv-x="531" 
d="M134 500l22 -43q40 28 77.5 41t87.5 13q87 0 121 -42.5t34 -138.5v-330h-108v330q0 54 -21 72.5t-64 18.5q-27 0 -58 -10.5t-57 -33.5v-377h-108v500h74z" />
    <glyph glyph-name="o" unicode="o" horiz-adv-x="516" 
d="M476 224q0 -67 -13 -112t-40 -72.5t-68 -39t-97 -11.5t-97 11.5t-68 39t-40 72.5t-13 112v52q0 67 13.5 112t40.5 72.5t68 39t96 11.5t96 -11.5t68 -39t40.5 -72.5t13.5 -112v-52zM368 276q0 43 -5.5 71.5t-18 44.5t-34 22.5t-52.5 6.5q-32 0 -53 -6.5t-33.5 -22.5
t-18 -44.5t-5.5 -71.5v-52q0 -44 5.5 -72t18 -44t33.5 -22.5t53 -6.5q31 0 52.5 6.5t34 22.5t18 44t5.5 72v52z" />
    <glyph glyph-name="p" unicode="p" horiz-adv-x="538" 
d="M60 -170v670h74l22 -43q34 26 71.5 40t79.5 14t76.5 -8.5t58.5 -32.5t37.5 -66.5t13.5 -110.5v-86q0 -68 -13.5 -110.5t-37.5 -66.5t-58.5 -32.5t-76.5 -8.5q-38 0 -72.5 12t-66.5 34v-205h-108zM168 123q26 -23 57.5 -33.5t64.5 -10.5q23 0 41 6.5t30 21.5t18 40.5
t6 64.5v76q0 75 -24 104t-71 29q-33 0 -64.5 -10.5t-57.5 -33.5v-254z" />
    <glyph glyph-name="q" unicode="q" horiz-adv-x="538" 
d="M370 -170v205q-32 -22 -66.5 -34t-72.5 -12q-42 0 -76.5 8.5t-58.5 32.5t-37.5 66.5t-13.5 110.5v86q0 68 13.5 110.5t37.5 66.5t58.5 32.5t76.5 8.5t79.5 -14t71.5 -40l22 43h74v-670h-108zM370 377q-26 23 -57.5 33.5t-64.5 10.5q-47 0 -71 -29t-24 -104v-76
q0 -39 6 -64.5t18 -40.5t30 -21.5t41 -6.5q33 0 64.5 10.5t57.5 33.5v254z" />
    <glyph glyph-name="r" unicode="r" horiz-adv-x="329" 
d="M299 415q-81 0 -131 -44v-371h-108v500h74l22 -43q32 26 66.5 40t76.5 14v-96z" />
    <glyph glyph-name="s" unicode="s" horiz-adv-x="496" 
d="M456 142q0 -30 -5.5 -57.5t-26.5 -48.5t-63 -34t-114 -13q-61 0 -101 10.5t-63.5 31.5t-33 51.5t-9.5 70.5h107q0 -20 4 -34t15.5 -23t31 -13t49.5 -4q32 0 52 4t31 12t14.5 19.5t3.5 27.5q0 17 -4 29.5t-17 21t-36 14t-60 8.5q-54 4 -89.5 14.5t-56.5 28t-29.5 43
t-8.5 59.5q0 78 51.5 114.5t146.5 36.5q108 0 154.5 -37.5t46.5 -127.5h-108q0 15 -3 29t-13 24t-28.5 16t-48.5 6q-51 0 -71 -15t-20 -47t19.5 -48.5t77.5 -20.5q62 -5 102 -15t63 -27t31.5 -43t8.5 -63z" />
    <glyph glyph-name="t" unicode="t" horiz-adv-x="344" 
d="M304 0q-15 -5 -39 -8t-45 -3q-71 0 -100 35t-29 106v280h-71v75l71 15v117l108 23v-140h105v-90h-105v-281q0 -23 10.5 -36.5t36.5 -13.5q20 0 33.5 3t24.5 5v-87z" />
    <glyph glyph-name="u" unicode="u" horiz-adv-x="536" 
d="M402 0l-22 43q-40 -28 -77.5 -41t-87.5 -13q-87 0 -121 42.5t-34 138.5v330h108v-330q0 -54 21 -72.5t64 -18.5q27 0 58 10.5t57 33.5v377h108v-500h-74z" />
    <glyph glyph-name="v" unicode="v" horiz-adv-x="478" 
d="M238 110h2l112 390h116l-169 -500h-120l-169 500h116z" />
    <glyph glyph-name="w" unicode="w" horiz-adv-x="738" 
d="M601 500h112l-125 -500h-130l-89 394l-89 -394h-130l-125 500h112l79 -397h1l91 397h122l91 -398h1z" />
    <glyph glyph-name="x" unicode="x" horiz-adv-x="475" 
d="M334 500h123l-161 -245l169 -255h-125l-102 172h-1l-102 -172h-125l169 255l-161 245h123l96 -163z" />
    <glyph glyph-name="y" unicode="y" horiz-adv-x="489" 
d="M15 500h116l116 -372h2l114 372h116l-199 -562q-12 -33 -26 -55.5t-35 -36.5t-49.5 -20t-68.5 -6q-14 0 -31.5 2.5t-29.5 7.5v90q14 -5 30 -7.5t31 -2.5q18 0 30.5 3t22 10.5t16.5 19.5t14 29l11 29z" />
    <glyph glyph-name="z" unicode="z" horiz-adv-x="478" 
d="M50 500h382v-75l-255 -335h266v-90h-403v74l255 336h-245v90z" />
    <glyph glyph-name="braceleft" unicode="{" horiz-adv-x="374" 
d="M221 -10q0 -26 11 -38t37 -12h55v-60h-55q-34 0 -58 5.5t-39.5 19t-23 36t-7.5 56.5v213q0 25 -10 34.5t-33 9.5h-58v61h58q23 0 33 10t10 34v214q0 66 30 91.5t98 25.5h55v-60h-55q-26 0 -37 -13t-11 -37v-178q0 -47 -8 -74t-39 -43q26 -14 36.5 -37.5t10.5 -60.5v-197z
" />
    <glyph glyph-name="bar" unicode="|" horiz-adv-x="220" 
d="M140 -120h-70v810h70v-810z" />
    <glyph glyph-name="braceright" unicode="}" horiz-adv-x="374" 
d="M153 187q0 37 10.5 60.5t36.5 37.5q-16 8 -25 18.5t-14 24.5t-6.5 32t-1.5 42v178q0 24 -11 37t-37 13h-55v60h55q68 0 98 -25.5t30 -91.5v-214q0 -24 10 -34t33 -10h58v-61h-58q-23 0 -33 -9.5t-10 -34.5v-213q0 -34 -7.5 -56.5t-23 -36t-39.5 -19t-58 -5.5h-55v60h55
q26 0 37 12t11 38v197z" />
    <glyph glyph-name="asciitilde" unicode="~" horiz-adv-x="459" 
d="M146 661q31 0 53.5 -11.5t40.5 -25t33.5 -25t32.5 -11.5q20 0 30.5 12t10.5 50h82q0 -42 -8 -70t-23 -44.5t-36.5 -23.5t-48.5 -7q-31 0 -53.5 11.5t-40.5 25t-33.5 25t-32.5 11.5q-20 0 -30.5 -12t-10.5 -50h-82q0 42 8 70t23 44.5t36.5 23.5t48.5 7z" />
    <glyph glyph-name="nonbreakingspace" unicode="&#xa0;" horiz-adv-x="115" 
 />
    <glyph glyph-name="exclamdown" unicode="&#xa1;" horiz-adv-x="261" 
d="M90 302h80l31 -452h-141zM70 500h120v-120h-120v120z" />
    <glyph glyph-name="cent" unicode="&#xa2;" horiz-adv-x="524" 
d="M366 402q-2 55 -23.5 74.5t-73.5 19.5q-32 0 -53 -6.5t-34 -22.5t-18.5 -44.5t-5.5 -71.5v-52q0 -44 5.5 -72t18.5 -44t34 -22.5t53 -6.5q52 0 73.5 19t23.5 75h108q0 -92 -40.5 -133t-119.5 -49v-86h-87v85q-45 4 -78.5 18t-55.5 41.5t-32.5 70t-10.5 104.5v52
q0 61 11 103.5t33 70t55.5 41.5t77.5 18v86h87v-86q79 -8 119.5 -49.5t40.5 -132.5h-108z" />
    <glyph glyph-name="sterling" unicode="&#xa3;" horiz-adv-x="562" 
d="M50 0v94q53 0 78.5 24t25.5 83q0 16 -5.5 36.5t-11.5 41.5h-87v71h67q-9 32 -18.5 62.5t-9.5 67.5q0 48 14 82.5t40 56t61.5 32t79.5 10.5q55 0 92.5 -9.5t61 -30.5t34 -55.5t10.5 -85.5h-110q0 47 -20 67t-67 20q-48 0 -67 -20.5t-19 -66.5q0 -36 7.5 -67t15.5 -63h117
v-71h-105q5 -18 8 -35t3 -34q0 -42 -10.5 -69t-35.5 -47h138q35 0 55 15.5t20 63.5h110q0 -46 -8.5 -78.5t-27.5 -53.5t-50 -31t-77 -10h-309z" />
    <glyph glyph-name="currency" unicode="&#xa4;" horiz-adv-x="602" 
d="M411 351q0 43 -5.5 71.5t-18 44.5t-34 22.5t-52.5 6.5q-32 0 -53 -6.5t-33.5 -22.5t-18 -44.5t-5.5 -71.5v-52q0 -44 5.5 -72t18 -44t33.5 -22.5t53 -6.5q31 0 52.5 6.5t34 22.5t18 44t5.5 72v52zM444 96q-26 -17 -61.5 -24.5t-81.5 -7.5q-47 0 -82.5 7.5t-61.5 25.5
l-65 -76l-59 49l74 86q-13 26 -18.5 61.5t-5.5 81.5v52q0 87 24 140l-74 87l58 49l65 -76q26 19 62 27t83 8q46 0 82 -8t63 -27l65 76l57 -49l-74 -86q12 -26 18.5 -61t6.5 -80v-52q0 -92 -25 -143l74 -85l-59 -50z" />
    <glyph glyph-name="yen" unicode="&#xa5;" horiz-adv-x="540" 
d="M215 74h-128v53h128v67h-128v53h128l-187 403h123l118 -294h2l118 294h123l-187 -403h128v-53h-128v-67h128v-53h-128v-74h-110v74z" />
    <glyph glyph-name="brokenbar" unicode="&#xa6;" horiz-adv-x="220" 
d="M140 -120h-70v340h70v-340zM140 350h-70v340h70v-340z" />
    <glyph glyph-name="section" unicode="&#xa7;" horiz-adv-x="564" 
d="M514 232q0 -35 -15.5 -63t-41.5 -48q53 -38 53 -123q0 -79 -54.5 -123.5t-169.5 -44.5q-66 0 -110 10.5t-71 32.5t-38.5 56t-11.5 81h110q0 -51 27 -72.5t93 -21.5q64 0 89.5 20t25.5 62q0 22 -6 37t-21.5 25.5t-41.5 17.5t-66 12q-65 8 -107 21t-66 33t-33 48t-9 67
q0 35 15 62.5t42 47.5q-27 20 -40 50t-13 74q0 79 54.5 123.5t169.5 44.5q66 0 110 -10.5t71 -32.5t38.5 -56t11.5 -81h-110q0 51 -27 72.5t-93 21.5q-64 0 -89.5 -20t-25.5 -62q0 -22 6 -37t21.5 -25.5t41.5 -17.5t66 -12q65 -8 107 -21t66 -33t33 -48t9 -67zM259 321
q-22 3 -40.5 6t-35.5 8q-25 -25 -25 -65q0 -21 6 -37t22 -28t44.5 -20.5t74.5 -14.5q41 -6 76 -15q11 12 18 28.5t7 37.5t-6 37t-22 28t-44.5 20.5t-74.5 14.5z" />
    <glyph glyph-name="dieresis" unicode="&#xa8;" horiz-adv-x="370" 
d="M59 661h91v-91h-91v91zM214 661h92v-91h-92v91z" />
    <glyph glyph-name="copyright" unicode="&#xa9;" horiz-adv-x="754" 
d="M452 373q0 33 -17 49t-62 16t-66 -17t-21 -69v-56q0 -48 19.5 -67.5t67.5 -19.5q45 0 62 16.5t17 49.5h73q0 -33 -7.5 -57.5t-25 -41.5t-47 -25.5t-72.5 -8.5q-39 0 -69 8t-50 26t-30.5 47.5t-10.5 72.5v56q0 85 40 119.5t120 34.5q85 0 118.5 -33t33.5 -100h-73zM50 398
q0 64 19.5 115t60 86.5t102 54.5t145.5 19q83 0 144.5 -19t102 -54.5t60.5 -86.5t20 -115v-146q0 -128 -80.5 -201.5t-246.5 -73.5q-164 0 -245.5 73.5t-81.5 201.5v146zM126 256q0 -207 251 -207t251 207v138q0 207 -251 207t-251 -207v-138z" />
    <glyph glyph-name="ordfeminine" unicode="&#xaa;" horiz-adv-x="433" 
d="M180 416q-53 -6 -53 -52q0 -23 15 -36t47 -13q34 0 59 9.5t49 31.5v74zM183 243q-76 0 -109.5 31t-33.5 84q0 109 131 119l126 9v40q0 39 -23 51t-61 12q-43 0 -59 -17.5t-16 -46.5h-86q0 72 40 104t121 32q51 0 83.5 -8.5t52 -25.5t27 -42t7.5 -59v-274h-60l-16 34
q-25 -21 -59 -32t-65 -11z" />
    <glyph glyph-name="guillemotleft" unicode="&#xab;" horiz-adv-x="532" 
d="M50 250l146 190h97l-147 -190l147 -190h-97zM239 250l146 190h97l-147 -190l147 -190h-97z" />
    <glyph glyph-name="logicalnot" unicode="&#xac;" horiz-adv-x="510" 
d="M460 401v-261h-80v181h-330v80h410z" />
    <glyph glyph-name="uni00AD" unicode="&#xad;" horiz-adv-x="350" 
d="M50 324h250v-90h-250v90z" />
    <glyph glyph-name="registered" unicode="&#xae;" horiz-adv-x="754" 
d="M50 398q0 64 19.5 115t60 86.5t102 54.5t145.5 19q83 0 144.5 -19t102 -54.5t60.5 -86.5t20 -115v-146q0 -128 -80.5 -201.5t-246.5 -73.5q-164 0 -245.5 73.5t-81.5 201.5v146zM126 256q0 -207 251 -207t251 207v138q0 207 -251 207t-251 -207v-138zM397 270h-85v-124
h-73v358h160q70 0 99.5 -25t29.5 -88q0 -47 -17 -70t-41 -37l68 -138h-80zM312 336h87q30 0 41.5 15t11.5 37q0 24 -12 37t-43 13h-85v-102z" />
    <glyph glyph-name="macron" unicode="&#xaf;" horiz-adv-x="370" 
d="M68 650h236v-71h-236v71z" />
    <glyph glyph-name="degree" unicode="&#xb0;" horiz-adv-x="390" 
d="M350 502q0 -47 -9.5 -77.5t-28.5 -48.5t-48.5 -25.5t-68.5 -7.5t-68.5 7.5t-48.5 25.5t-28.5 48.5t-9.5 77.5q0 46 9.5 77t28.5 49t48.5 25.5t68.5 7.5t68.5 -7.5t48.5 -25.5t28.5 -49t9.5 -77zM123 508q0 -29 4 -47.5t12.5 -29t22 -14t33.5 -3.5q38 0 54.5 16t16.5 67v5
q0 53 -16.5 70.5t-54.5 17.5t-55 -16.5t-17 -65.5z" />
    <glyph glyph-name="plusminus" unicode="&#xb1;" horiz-adv-x="510" 
d="M50 0v80h410v-80h-410zM50 386h165v165h80v-165h165v-80h-165v-166h-80v166h-165v80z" />
    <glyph glyph-name="twosuperior" unicode="&#xb2;" horiz-adv-x="310" 
d="M60 594q0 48 24.5 74t78.5 26q60 0 81.5 -25.5t21.5 -68.5q0 -26 -10.5 -43.5t-26.5 -30t-34.5 -21.5t-35 -18t-27.5 -20.5t-12 -27.5h150v-50h-210v32q0 29 11 49t27 34t35.5 24t35.5 20t27 21.5t11 28.5q0 23 -9 34.5t-35 11.5q-25 0 -34.5 -12.5t-9.5 -37.5h-59z" />
    <glyph glyph-name="threesuperior" unicode="&#xb3;" horiz-adv-x="327" 
d="M207 478q0 23 -12.5 31t-28.5 8h-37v49h35q37 0 37 38q0 19 -10 29.5t-35 10.5q-26 0 -36 -12.5t-10 -37.5h-59q0 48 25 74t80 26q57 0 80.5 -24t23.5 -66q0 -20 -11 -35.5t-28 -24.5q23 -8 34.5 -24t11.5 -44q0 -44 -23 -68t-87 -24q-60 0 -83.5 25.5t-23.5 74.5h58
q0 -25 11 -37.5t38 -12.5q28 0 39 10.5t11 33.5z" />
    <glyph glyph-name="acute" unicode="&#xb4;" horiz-adv-x="235" 
d="M80 685h108l-76 -120h-67z" />
    <glyph glyph-name="mu" unicode="&#xb5;" horiz-adv-x="536" 
d="M168 -170h-108v670h108v-377q25 -23 57 -33.5t58 -10.5q43 0 64 18.5t21 72.5v330h108v-330q0 -96 -34 -138.5t-121 -42.5q-44 0 -79.5 10.5t-73.5 35.5v-205z" />
    <glyph glyph-name="mu" unicode="&#x3bc;" horiz-adv-x="536" 
d="M168 -170h-108v670h108v-377q25 -23 57 -33.5t58 -10.5q43 0 64 18.5t21 72.5v330h108v-330q0 -96 -34 -138.5t-121 -42.5q-44 0 -79.5 10.5t-73.5 35.5v-205z" />
    <glyph glyph-name="paragraph" unicode="&#xb6;" horiz-adv-x="713" 
d="M47 402q0 71 16 118.5t47.5 76.5t78 41t107.5 12h322v-828h-84v752h-70v-752h-84v338h-86q-128 0 -187.5 57.5t-59.5 184.5z" />
    <glyph glyph-name="periodcentered" unicode="&#xb7;" horiz-adv-x="220" 
d="M50 388h120v-120h-120v120z" />
    <glyph glyph-name="cedilla" unicode="&#xb8;" horiz-adv-x="229" 
d="M131 -44q31 -4 51 -19.5t20 -52.5q0 -43 -25.5 -62t-82.5 -19h-63v53h64q24 0 32.5 7t8.5 21q0 15 -8.5 22t-32.5 7h-28l26 87h51z" />
    <glyph glyph-name="onesuperior" unicode="&#xb9;" horiz-adv-x="229" 
d="M101 389v250h-51v32l73 19h36v-301h-58z" />
    <glyph glyph-name="ordmasculine" unicode="&#xba;" horiz-adv-x="428" 
d="M388 431q0 -54 -10.5 -90t-32 -57.5t-54 -31t-77.5 -9.5t-77.5 9.5t-54 31t-32 57.5t-10.5 90v42q0 54 10.5 90t32.5 57.5t54.5 31t76.5 9.5t76.5 -9.5t54.5 -31t32.5 -57.5t10.5 -90v-42zM302 473q0 35 -4.5 57.5t-14.5 35.5t-27 18t-42 5t-42 -5t-27 -18t-14.5 -35.5
t-4.5 -57.5v-42q0 -35 4.5 -57.5t14.5 -35.5t27 -18t42 -5t42 5t27 18t14.5 35.5t4.5 57.5v42z" />
    <glyph glyph-name="guillemotright" unicode="&#xbb;" horiz-adv-x="532" 
d="M336 60h-97l147 190l-147 190h97l146 -190zM147 60h-97l147 190l-147 190h97l146 -190z" />
    <glyph glyph-name="onequarter" unicode="&#xbc;" horiz-adv-x="611" 
d="M116 349v250h-51v32l73 19h36v-301h-58zM457 64h-140v46l128 191h70v-189h36v-48h-36v-64h-58v64zM457 112v130l-88 -130h88zM484 650h60l-421 -650h-60z" />
    <glyph glyph-name="onehalf" unicode="&#xbd;" horiz-adv-x="632" 
d="M484 650h60l-421 -650h-60zM116 349v250h-51v32l73 19h36v-301h-58zM362 205q0 48 24.5 74t78.5 26q60 0 81.5 -25.5t21.5 -68.5q0 -26 -10.5 -43.5t-26.5 -30t-34.5 -21.5t-35 -18t-27.5 -20.5t-12 -27.5h150v-50h-210v32q0 29 11 49t27 34t35.5 24t35.5 20t27 21.5
t11 28.5q0 23 -9 34.5t-35 11.5q-25 0 -34.5 -12.5t-9.5 -37.5h-59z" />
    <glyph glyph-name="threequarters" unicode="&#xbe;" horiz-adv-x="644" 
d="M217 438q0 23 -12.5 31t-28.5 8h-37v49h35q37 0 37 38q0 19 -10 29.5t-35 10.5q-26 0 -36 -12.5t-10 -37.5h-59q0 48 25 74t80 26q57 0 80.5 -24t23.5 -66q0 -20 -11 -35.5t-28 -24.5q23 -8 34.5 -24t11.5 -44q0 -44 -23 -68t-87 -24q-60 0 -83.5 25.5t-23.5 74.5h58
q0 -25 11 -37.5t38 -12.5q28 0 39 10.5t11 33.5zM490 64h-140v46l128 191h70v-189h36v-48h-36v-64h-58v64zM490 112v130l-88 -130h88zM517 650h60l-421 -650h-60z" />
    <glyph glyph-name="questiondown" unicode="&#xbf;" horiz-adv-x="535" 
d="M320 154q-41 0 -71 -3.5t-49.5 -16t-28.5 -36.5t-9 -65q0 -55 28 -78.5t79 -23.5q50 0 78 23t28 79h110q0 -95 -51 -144.5t-162 -49.5q-114 0 -168 47t-54 147q0 52 12 88.5t34.5 60.5t55.5 36.5t76 16.5l7 69h70zM330 380h-120v120h120v-120z" />
    <glyph glyph-name="Agrave" unicode="&#xc0;" horiz-adv-x="530" 
d="M365 141h-201l-35 -141h-114l180 650h139l181 -650h-114zM186 231h157l-77 319h-2zM298 715h-67l-76 120h108z" />
    <glyph glyph-name="Aacute" unicode="&#xc1;" horiz-adv-x="530" 
d="M365 141h-201l-35 -141h-114l180 650h139l181 -650h-114zM186 231h157l-77 319h-2zM271 835h108l-76 -120h-67z" />
    <glyph glyph-name="Acircumflex" unicode="&#xc2;" horiz-adv-x="530" 
d="M365 141h-201l-35 -141h-114l180 650h139l181 -650h-114zM186 231h157l-77 319h-2zM383 715h-71l-47 62l-46 -62h-71l57 120h120z" />
    <glyph glyph-name="Atilde" unicode="&#xc3;" horiz-adv-x="530" 
d="M365 141h-201l-35 -141h-114l180 650h139l181 -650h-114zM186 231h157l-77 319h-2zM319 786q34 0 34 37h63q0 -60 -21.5 -85.5t-65.5 -25.5q-21 0 -36 7.5t-27.5 16t-25 16t-28.5 7.5q-34 0 -34 -37h-64q0 61 22 86t65 25q22 0 37 -7.5t27.5 -16t25 -16t28.5 -7.5z" />
    <glyph glyph-name="Adieresis" unicode="&#xc4;" horiz-adv-x="530" 
d="M365 141h-201l-35 -141h-114l180 650h139l181 -650h-114zM186 231h157l-77 319h-2zM142 811h91v-91h-91v91zM297 811h92v-91h-92v91z" />
    <glyph glyph-name="Aring" unicode="&#xc5;" horiz-adv-x="530" 
d="M365 141h-201l-35 -141h-114l180 650h139l181 -650h-114zM186 231h157l-77 319h-2zM265 885q50 0 77.5 -22t27.5 -67t-27.5 -67.5t-77.5 -22.5q-49 0 -76.5 22.5t-27.5 67.5t27.5 67t76.5 22zM265 757q43 0 43 39q0 38 -43 38t-43 -38q0 -39 43 -39z" />
    <glyph glyph-name="AE" unicode="&#xc6;" horiz-adv-x="840" 
d="M415 141h-211l-70 -141h-114l336 650h444v-94h-275v-181h240v-90h-240v-191h275v-94h-385v141zM250 231h165v325h1z" />
    <glyph glyph-name="Ccedilla" unicode="&#xc7;" horiz-adv-x="545" 
d="M278 83q60 0 86 25.5t26 88.5h110q0 -104 -47.5 -153t-150.5 -54l-10 -34q31 -4 51 -19.5t20 -52.5q0 -43 -25.5 -62t-82.5 -19h-63v53h64q24 0 32.5 7t8.5 21q0 15 -8.5 22t-32.5 7h-28l23 77q-52 3 -90 17t-62.5 42t-36.5 71t-12 102v206q0 126 55 179.5t173 53.5
q116 0 169 -49t53 -159h-110q0 60 -26 87t-86 27q-62 0 -90 -27.5t-28 -100.5v-228q0 -73 28 -100.5t90 -27.5z" />
    <glyph glyph-name="Egrave" unicode="&#xc8;" horiz-adv-x="500" 
d="M65 650h385v-94h-275v-181h240v-90h-240v-191h275v-94h-385v650zM306 715h-67l-76 120h108z" />
    <glyph glyph-name="Eacute" unicode="&#xc9;" horiz-adv-x="500" 
d="M65 650h385v-94h-275v-181h240v-90h-240v-191h275v-94h-385v650zM258 835h108l-76 -120h-67z" />
    <glyph glyph-name="Ecircumflex" unicode="&#xca;" horiz-adv-x="500" 
d="M65 650h385v-94h-275v-181h240v-90h-240v-191h275v-94h-385v650zM379 715h-71l-47 62l-46 -62h-71l57 120h120z" />
    <glyph glyph-name="Edieresis" unicode="&#xcb;" horiz-adv-x="500" 
d="M65 650h385v-94h-275v-181h240v-90h-240v-191h275v-94h-385v650zM137 811h91v-91h-91v91zM292 811h92v-91h-92v91z" />
    <glyph glyph-name="Igrave" unicode="&#xcc;" horiz-adv-x="240" 
d="M65 650h110v-650h-110v650zM155 715h-67l-76 120h108z" />
    <glyph glyph-name="Iacute" unicode="&#xcd;" horiz-adv-x="240" 
d="M65 650h110v-650h-110v650zM126 835h108l-76 -120h-67z" />
    <glyph glyph-name="Icircumflex" unicode="&#xce;" horiz-adv-x="240" 
d="M65 650h110v-650h-110v650zM239 715h-71l-47 62l-46 -62h-71l57 120h120z" />
    <glyph glyph-name="Idieresis" unicode="&#xcf;" horiz-adv-x="240" 
d="M65 650h110v-650h-110v650zM-2 811h91v-91h-91v91zM153 811h92v-91h-92v91z" />
    <glyph glyph-name="Eth" unicode="&#xd0;" horiz-adv-x="570" 
d="M68 0v291h-55v76h55v283h209q60 0 105 -9.5t76 -35t46.5 -70.5t15.5 -116v-187q0 -71 -15.5 -116t-46.5 -71t-76 -35.5t-105 -9.5h-209zM178 556v-189h100v-76h-100v-197h97q37 0 63 7t42 22.5t23 40.5t7 61v205q0 43 -9 68.5t-26 38t-42 16t-58 3.5h-97z" />
    <glyph glyph-name="Ntilde" unicode="&#xd1;" horiz-adv-x="569" 
d="M510 0h-138l-210 514q1 -18 2 -43.5t1.5 -53t1 -53.5t0.5 -44v-320h-106v650h138l210 -514q0 19 -1 44.5t-2 51.5t-1.5 49.5t-0.5 38.5v330h106v-650zM338 786q34 0 34 37h63q0 -60 -21.5 -85.5t-65.5 -25.5q-21 0 -36 7.5t-27.5 16t-25 16t-28.5 7.5q-34 0 -34 -37h-64
q0 61 22 86t65 25q22 0 37 -7.5t27.5 -16t25 -16t28.5 -7.5z" />
    <glyph glyph-name="Ograve" unicode="&#xd2;" horiz-adv-x="564" 
d="M160 214q0 -75 30 -103t92 -28t92 28t30 103v222q0 75 -30 103t-92 28t-92 -28t-30 -103v-222zM514 215q0 -61 -13.5 -104t-42 -70t-72.5 -39.5t-104 -12.5t-104 12.5t-72.5 39.5t-42 70t-13.5 104v220q0 61 13.5 104t42 70t72.5 39.5t104 12.5t104 -12.5t72.5 -39.5
t42 -70t13.5 -104v-220zM318 715h-67l-76 120h108z" />
    <glyph glyph-name="Oacute" unicode="&#xd3;" horiz-adv-x="564" 
d="M160 214q0 -75 30 -103t92 -28t92 28t30 103v222q0 75 -30 103t-92 28t-92 -28t-30 -103v-222zM514 215q0 -61 -13.5 -104t-42 -70t-72.5 -39.5t-104 -12.5t-104 12.5t-72.5 39.5t-42 70t-13.5 104v220q0 61 13.5 104t42 70t72.5 39.5t104 12.5t104 -12.5t72.5 -39.5
t42 -70t13.5 -104v-220zM295 835h108l-76 -120h-67z" />
    <glyph glyph-name="Ocircumflex" unicode="&#xd4;" horiz-adv-x="564" 
d="M160 214q0 -75 30 -103t92 -28t92 28t30 103v222q0 75 -30 103t-92 28t-92 -28t-30 -103v-222zM514 215q0 -61 -13.5 -104t-42 -70t-72.5 -39.5t-104 -12.5t-104 12.5t-72.5 39.5t-42 70t-13.5 104v220q0 61 13.5 104t42 70t72.5 39.5t104 12.5t104 -12.5t72.5 -39.5
t42 -70t13.5 -104v-220zM399 715h-71l-47 62l-46 -62h-71l57 120h120z" />
    <glyph glyph-name="Otilde" unicode="&#xd5;" horiz-adv-x="564" 
d="M160 214q0 -75 30 -103t92 -28t92 28t30 103v222q0 75 -30 103t-92 28t-92 -28t-30 -103v-222zM514 215q0 -61 -13.5 -104t-42 -70t-72.5 -39.5t-104 -12.5t-104 12.5t-72.5 39.5t-42 70t-13.5 104v220q0 61 13.5 104t42 70t72.5 39.5t104 12.5t104 -12.5t72.5 -39.5
t42 -70t13.5 -104v-220zM336 786q34 0 34 37h63q0 -60 -21.5 -85.5t-65.5 -25.5q-21 0 -36 7.5t-27.5 16t-25 16t-28.5 7.5q-34 0 -34 -37h-64q0 61 22 86t65 25q22 0 37 -7.5t27.5 -16t25 -16t28.5 -7.5z" />
    <glyph glyph-name="Odieresis" unicode="&#xd6;" horiz-adv-x="564" 
d="M160 214q0 -75 30 -103t92 -28t92 28t30 103v222q0 75 -30 103t-92 28t-92 -28t-30 -103v-222zM514 215q0 -61 -13.5 -104t-42 -70t-72.5 -39.5t-104 -12.5t-104 12.5t-72.5 39.5t-42 70t-13.5 104v220q0 61 13.5 104t42 70t72.5 39.5t104 12.5t104 -12.5t72.5 -39.5
t42 -70t13.5 -104v-220zM158 811h91v-91h-91v91zM313 811h92v-91h-92v91z" />
    <glyph glyph-name="multiply" unicode="&#xd7;" horiz-adv-x="461" 
d="M50 151l123 124l-123 123l56 57l124 -124l124 124l56 -57l-124 -123l125 -125l-57 -57l-124 125l-124 -124z" />
    <glyph glyph-name="Oslash" unicode="&#xd8;" horiz-adv-x="564" 
d="M86 64q-36 52 -36 151v220q0 61 13.5 104t42 70t72.5 39.5t104 12.5q91 0 145 -30l24 39h78l-51 -85q36 -53 36 -150v-220q0 -61 -13.5 -104t-42 -70t-72.5 -39.5t-104 -12.5q-92 0 -146 30l-23 -39h-78zM404 436q0 7 -0.5 13t-0.5 12l-212 -351q15 -15 37.5 -21t53.5 -6
q62 0 92 28t30 103v222zM160 214v-13.5t1 -12.5l211 352q-28 27 -90 27t-92 -28t-30 -103v-222z" />
    <glyph glyph-name="Ugrave" unicode="&#xd9;" horiz-adv-x="570" 
d="M170 650v-448q0 -66 29 -92.5t86 -26.5t86 26.5t29 92.5v448h110v-444q0 -62 -14.5 -104t-43 -67t-70.5 -35.5t-97 -10.5t-97 10.5t-70.5 35.5t-43 67t-14.5 104v444h110zM318 715h-67l-76 120h108z" />
    <glyph glyph-name="Uacute" unicode="&#xda;" horiz-adv-x="570" 
d="M170 650v-448q0 -66 29 -92.5t86 -26.5t86 26.5t29 92.5v448h110v-444q0 -62 -14.5 -104t-43 -67t-70.5 -35.5t-97 -10.5t-97 10.5t-70.5 35.5t-43 67t-14.5 104v444h110zM293 835h108l-76 -120h-67z" />
    <glyph glyph-name="Ucircumflex" unicode="&#xdb;" horiz-adv-x="570" 
d="M170 650v-448q0 -66 29 -92.5t86 -26.5t86 26.5t29 92.5v448h110v-444q0 -62 -14.5 -104t-43 -67t-70.5 -35.5t-97 -10.5t-97 10.5t-70.5 35.5t-43 67t-14.5 104v444h110zM403 715h-71l-47 62l-46 -62h-71l57 120h120z" />
    <glyph glyph-name="Udieresis" unicode="&#xdc;" horiz-adv-x="570" 
d="M170 650v-448q0 -66 29 -92.5t86 -26.5t86 26.5t29 92.5v448h110v-444q0 -62 -14.5 -104t-43 -67t-70.5 -35.5t-97 -10.5t-97 10.5t-70.5 35.5t-43 67t-14.5 104v444h110zM162 811h91v-91h-91v91zM317 811h92v-91h-92v91z" />
    <glyph glyph-name="Yacute" unicode="&#xdd;" horiz-adv-x="514" 
d="M202 246l-187 404h120l121 -295h2l121 295h120l-187 -404v-246h-110v246zM263 835h108l-76 -120h-67z" />
    <glyph glyph-name="Thorn" unicode="&#xde;" horiz-adv-x="548" 
d="M175 0h-110v650h110v-114h106q57 0 100 -9t71 -33t42 -64.5t14 -103.5q0 -61 -14 -101t-42 -64t-71 -33.5t-100 -9.5h-106v-118zM395 327q0 35 -6 57.5t-19.5 35t-35 17.5t-51.5 5h-108v-230h108q30 0 51.5 4.5t35 17.5t19.5 35.5t6 57.5z" />
    <glyph glyph-name="germandbls" unicode="&#xdf;" horiz-adv-x="551" 
d="M227 407h30q30 0 47.5 7.5t26 20.5t11 30.5t2.5 36.5q0 49 -21 68.5t-67 19.5q-52 0 -70 -23t-18 -65v-502h-108v502q0 94 48 136t148 42q105 0 150.5 -42.5t45.5 -126.5q0 -58 -25.5 -92.5t-67.5 -48.5q36 -6 64.5 -18t48 -33.5t29.5 -53.5t10 -78q0 -57 -15 -95
t-42.5 -61t-66 -32.5t-85.5 -9.5q-25 0 -49.5 3t-46.5 8v90q23 -7 47 -10t46 -3q59 0 81.5 25.5t22.5 84.5q0 39 -6 64t-20 39.5t-36.5 20.5t-55.5 6h-58v90z" />
    <glyph glyph-name="agrave" unicode="&#xe0;" horiz-adv-x="506" 
d="M211 205q-35 -5 -50.5 -21t-15.5 -44t18.5 -44.5t58.5 -16.5q43 0 72 11t55 33v99zM215 -11q-95 0 -137 38.5t-42 104.5q0 137 164 149l149 10v51q0 38 -18.5 58.5t-75.5 20.5q-54 0 -74 -21t-20 -59h-108q0 90 50 130t152 40q111 0 156.5 -40.5t45.5 -128.5v-342h-74
l-22 43q-25 -20 -61.5 -37t-84.5 -17zM298 565h-67l-76 120h108z" />
    <glyph glyph-name="aacute" unicode="&#xe1;" horiz-adv-x="506" 
d="M211 205q-35 -5 -50.5 -21t-15.5 -44t18.5 -44.5t58.5 -16.5q43 0 72 11t55 33v99zM215 -11q-95 0 -137 38.5t-42 104.5q0 137 164 149l149 10v51q0 38 -18.5 58.5t-75.5 20.5q-54 0 -74 -21t-20 -59h-108q0 90 50 130t152 40q111 0 156.5 -40.5t45.5 -128.5v-342h-74
l-22 43q-25 -20 -61.5 -37t-84.5 -17zM264 685h108l-76 -120h-67z" />
    <glyph glyph-name="acircumflex" unicode="&#xe2;" horiz-adv-x="506" 
d="M211 205q-35 -5 -50.5 -21t-15.5 -44t18.5 -44.5t58.5 -16.5q43 0 72 11t55 33v99zM215 -11q-95 0 -137 38.5t-42 104.5q0 137 164 149l149 10v51q0 38 -18.5 58.5t-75.5 20.5q-54 0 -74 -21t-20 -59h-108q0 90 50 130t152 40q111 0 156.5 -40.5t45.5 -128.5v-342h-74
l-22 43q-25 -20 -61.5 -37t-84.5 -17zM371 565h-71l-47 62l-46 -62h-71l57 120h120z" />
    <glyph glyph-name="atilde" unicode="&#xe3;" horiz-adv-x="506" 
d="M211 205q-35 -5 -50.5 -21t-15.5 -44t18.5 -44.5t58.5 -16.5q43 0 72 11t55 33v99zM215 -11q-95 0 -137 38.5t-42 104.5q0 137 164 149l149 10v51q0 38 -18.5 58.5t-75.5 20.5q-54 0 -74 -21t-20 -59h-108q0 90 50 130t152 40q111 0 156.5 -40.5t45.5 -128.5v-342h-74
l-22 43q-25 -20 -61.5 -37t-84.5 -17zM317 636q34 0 34 37h63q0 -60 -21.5 -85.5t-65.5 -25.5q-21 0 -36 7.5t-27.5 16t-25 16t-28.5 7.5q-34 0 -34 -37h-64q0 61 22 86t65 25q22 0 37 -7.5t27.5 -16t25 -16t28.5 -7.5z" />
    <glyph glyph-name="adieresis" unicode="&#xe4;" horiz-adv-x="506" 
d="M211 205q-35 -5 -50.5 -21t-15.5 -44t18.5 -44.5t58.5 -16.5q43 0 72 11t55 33v99zM215 -11q-95 0 -137 38.5t-42 104.5q0 137 164 149l149 10v51q0 38 -18.5 58.5t-75.5 20.5q-54 0 -74 -21t-20 -59h-108q0 90 50 130t152 40q111 0 156.5 -40.5t45.5 -128.5v-342h-74
l-22 43q-25 -20 -61.5 -37t-84.5 -17zM132 661h91v-91h-91v91zM287 661h92v-91h-92v91z" />
    <glyph glyph-name="aring" unicode="&#xe5;" horiz-adv-x="506" 
d="M211 205q-35 -5 -50.5 -21t-15.5 -44t18.5 -44.5t58.5 -16.5q43 0 72 11t55 33v99zM215 -11q-95 0 -137 38.5t-42 104.5q0 137 164 149l149 10v51q0 38 -18.5 58.5t-75.5 20.5q-54 0 -74 -21t-20 -59h-108q0 90 50 130t152 40q111 0 156.5 -40.5t45.5 -128.5v-342h-74
l-22 43q-25 -20 -61.5 -37t-84.5 -17zM253 735q50 0 77.5 -22t27.5 -67t-27.5 -67.5t-77.5 -22.5q-49 0 -76.5 22.5t-27.5 67.5t27.5 67t76.5 22zM253 607q43 0 43 39q0 38 -43 38t-43 -38q0 -39 43 -39z" />
    <glyph glyph-name="ae" unicode="&#xe6;" horiz-adv-x="819" 
d="M224 -11q-50 0 -84.5 11t-57 30.5t-32.5 46.5t-10 60q0 151 170 151h143v54q0 38 -18.5 58.5t-75.5 20.5q-54 0 -74 -21t-20 -59h-108q0 90 50 130t152 40q63 0 100 -13t56 -40q23 29 61 41t93 12q50 0 89 -11t66 -38t41 -72t14 -114v-64h-318q0 -38 5 -63t17.5 -41
t33 -22.5t52.5 -6.5q30 0 55 1t47 3t42.5 5t41.5 7v-88q-39 -8 -82.5 -13t-96.5 -5q-63 0 -104.5 13.5t-64.5 49.5q-24 -36 -68 -49.5t-115 -13.5zM671 288q0 34 -2.5 59.5t-13 41.5t-31 24t-55.5 8q-34 0 -55 -7.5t-33 -23t-16 -41t-4 -61.5h210zM230 79q39 0 63 6.5
t37.5 22.5t18 41t4.5 63h-130q-35 0 -54.5 -16.5t-19.5 -53.5q0 -32 18 -47.5t63 -15.5z" />
    <glyph glyph-name="ccedilla" unicode="&#xe7;" horiz-adv-x="514" 
d="M361 327q-2 55 -23.5 74.5t-73.5 19.5q-32 0 -53 -6.5t-34 -22.5t-18.5 -44.5t-5.5 -71.5v-52q0 -44 5.5 -72t18.5 -44t34 -22.5t53 -6.5q52 0 73.5 19t23.5 75h108q0 -50 -12 -84.5t-36 -56t-59.5 -31.5t-81.5 -11l-10 -36q29 -5 48 -20.5t19 -49.5q0 -42 -26.5 -57.5
t-76.5 -15.5h-58v43h57q25 0 33.5 8.5t8.5 21.5q0 14 -8.5 22t-33.5 8h-20l23 76q-49 3 -85 16t-59.5 40t-35 70.5t-11.5 107.5v52q0 68 13.5 113.5t41 72.5t68.5 38t96 11q50 0 88.5 -9.5t64.5 -31t39 -56.5t13 -87h-108z" />
    <glyph glyph-name="egrave" unicode="&#xe8;" horiz-adv-x="511" 
d="M363 288q0 34 -2.5 59.5t-13 41.5t-31 24t-55.5 8q-34 0 -55 -7.5t-33 -23t-16 -41t-4 -61.5h210zM261 79q30 0 55 1t47 3t42.5 5t41.5 7v-88q-39 -8 -82.5 -13t-96.5 -5q-55 0 -97 10.5t-70 37t-42 72t-14 115.5v52q0 68 14 113t41 72t67.5 38.5t93.5 11.5q50 0 89 -11
t66 -38t41 -72t14 -114v-64h-318q0 -38 5 -63t17.5 -41t33 -22.5t52.5 -6.5zM306 565h-67l-76 120h108z" />
    <glyph glyph-name="eacute" unicode="&#xe9;" horiz-adv-x="511" 
d="M363 288q0 34 -2.5 59.5t-13 41.5t-31 24t-55.5 8q-34 0 -55 -7.5t-33 -23t-16 -41t-4 -61.5h210zM261 79q30 0 55 1t47 3t42.5 5t41.5 7v-88q-39 -8 -82.5 -13t-96.5 -5q-55 0 -97 10.5t-70 37t-42 72t-14 115.5v52q0 68 14 113t41 72t67.5 38.5t93.5 11.5q50 0 89 -11
t66 -38t41 -72t14 -114v-64h-318q0 -38 5 -63t17.5 -41t33 -22.5t52.5 -6.5zM267 685h108l-76 -120h-67z" />
    <glyph glyph-name="ecircumflex" unicode="&#xea;" horiz-adv-x="511" 
d="M363 288q0 34 -2.5 59.5t-13 41.5t-31 24t-55.5 8q-34 0 -55 -7.5t-33 -23t-16 -41t-4 -61.5h210zM261 79q30 0 55 1t47 3t42.5 5t41.5 7v-88q-39 -8 -82.5 -13t-96.5 -5q-55 0 -97 10.5t-70 37t-42 72t-14 115.5v52q0 68 14 113t41 72t67.5 38.5t93.5 11.5q50 0 89 -11
t66 -38t41 -72t14 -114v-64h-318q0 -38 5 -63t17.5 -41t33 -22.5t52.5 -6.5zM388 565h-71l-47 62l-46 -62h-71l57 120h120z" />
    <glyph glyph-name="edieresis" unicode="&#xeb;" horiz-adv-x="511" 
d="M363 288q0 34 -2.5 59.5t-13 41.5t-31 24t-55.5 8q-34 0 -55 -7.5t-33 -23t-16 -41t-4 -61.5h210zM261 79q30 0 55 1t47 3t42.5 5t41.5 7v-88q-39 -8 -82.5 -13t-96.5 -5q-55 0 -97 10.5t-70 37t-42 72t-14 115.5v52q0 68 14 113t41 72t67.5 38.5t93.5 11.5q50 0 89 -11
t66 -38t41 -72t14 -114v-64h-318q0 -38 5 -63t17.5 -41t33 -22.5t52.5 -6.5zM144 661h91v-91h-91v91zM299 661h92v-91h-92v91z" />
    <glyph glyph-name="igrave" unicode="&#xec;" 
d="M60 500h108v-500h-108v500zM148 565h-67l-76 120h108z" />
    <glyph glyph-name="iacute" unicode="&#xed;" 
d="M60 500h108v-500h-108v500zM117 685h108l-76 -120h-67z" />
    <glyph glyph-name="icircumflex" unicode="&#xee;" 
d="M60 500h108v-500h-108v500zM234 565h-71l-47 62l-46 -62h-71l57 120h120z" />
    <glyph glyph-name="idieresis" unicode="&#xef;" 
d="M-4 648h91v-91h-91v91zM141 648h92v-91h-92v91zM60 500h108v-500h-108v500z" />
    <glyph glyph-name="eth" unicode="&#xf0;" horiz-adv-x="523" 
d="M473 220q0 -68 -13 -112.5t-40 -71t-68 -37t-96 -10.5q-56 0 -96.5 10.5t-67 37t-39.5 71t-13 112.5v52q0 66 11.5 110.5t36.5 71.5t64 38t93 11q65 0 106 -30q-15 50 -42 97l-82 -20l-15 53l63 15q-12 16 -25.5 31t-28.5 32h124q8 -9 16 -18.5t15 -20.5l81 19l15 -52
l-64 -16q35 -64 50 -139t15 -169v-65zM366 278q0 41 -5.5 68t-18.5 42.5t-34 21.5t-52 6t-52 -6t-34 -21.5t-18.5 -42.5t-5.5 -68v-65q0 -41 5.5 -68t18.5 -42.5t34 -21.5t52 -6t52 6t34 21.5t18.5 42.5t5.5 68v65z" />
    <glyph glyph-name="ntilde" unicode="&#xf1;" horiz-adv-x="536" 
d="M134 500l22 -43q40 28 77.5 41t87.5 13q87 0 121 -42.5t34 -138.5v-330h-108v330q0 54 -21 72.5t-64 18.5q-27 0 -58 -10.5t-57 -33.5v-377h-108v500h74zM333 636q34 0 34 37h63q0 -60 -21.5 -85.5t-65.5 -25.5q-21 0 -36 7.5t-27.5 16t-25 16t-28.5 7.5q-34 0 -34 -37
h-64q0 61 22 86t65 25q22 0 37 -7.5t27.5 -16t25 -16t28.5 -7.5z" />
    <glyph glyph-name="ograve" unicode="&#xf2;" horiz-adv-x="516" 
d="M476 224q0 -67 -13 -112t-40 -72.5t-68 -39t-97 -11.5t-97 11.5t-68 39t-40 72.5t-13 112v52q0 67 13.5 112t40.5 72.5t68 39t96 11.5t96 -11.5t68 -39t40.5 -72.5t13.5 -112v-52zM368 276q0 43 -5.5 71.5t-18 44.5t-34 22.5t-52.5 6.5q-32 0 -53 -6.5t-33.5 -22.5
t-18 -44.5t-5.5 -71.5v-52q0 -44 5.5 -72t18 -44t33.5 -22.5t53 -6.5q31 0 52.5 6.5t34 22.5t18 44t5.5 72v52zM296 565h-67l-76 120h108z" />
    <glyph glyph-name="oacute" unicode="&#xf3;" horiz-adv-x="516" 
d="M476 224q0 -67 -13 -112t-40 -72.5t-68 -39t-97 -11.5t-97 11.5t-68 39t-40 72.5t-13 112v52q0 67 13.5 112t40.5 72.5t68 39t96 11.5t96 -11.5t68 -39t40.5 -72.5t13.5 -112v-52zM368 276q0 43 -5.5 71.5t-18 44.5t-34 22.5t-52.5 6.5q-32 0 -53 -6.5t-33.5 -22.5
t-18 -44.5t-5.5 -71.5v-52q0 -44 5.5 -72t18 -44t33.5 -22.5t53 -6.5q31 0 52.5 6.5t34 22.5t18 44t5.5 72v52zM261 685h108l-76 -120h-67z" />
    <glyph glyph-name="ocircumflex" unicode="&#xf4;" horiz-adv-x="516" 
d="M476 224q0 -67 -13 -112t-40 -72.5t-68 -39t-97 -11.5t-97 11.5t-68 39t-40 72.5t-13 112v52q0 67 13.5 112t40.5 72.5t68 39t96 11.5t96 -11.5t68 -39t40.5 -72.5t13.5 -112v-52zM368 276q0 43 -5.5 71.5t-18 44.5t-34 22.5t-52.5 6.5q-32 0 -53 -6.5t-33.5 -22.5
t-18 -44.5t-5.5 -71.5v-52q0 -44 5.5 -72t18 -44t33.5 -22.5t53 -6.5q31 0 52.5 6.5t34 22.5t18 44t5.5 72v52zM376 565h-71l-47 62l-46 -62h-71l57 120h120z" />
    <glyph glyph-name="otilde" unicode="&#xf5;" horiz-adv-x="516" 
d="M476 224q0 -67 -13 -112t-40 -72.5t-68 -39t-97 -11.5t-97 11.5t-68 39t-40 72.5t-13 112v52q0 67 13.5 112t40.5 72.5t68 39t96 11.5t96 -11.5t68 -39t40.5 -72.5t13.5 -112v-52zM368 276q0 43 -5.5 71.5t-18 44.5t-34 22.5t-52.5 6.5q-32 0 -53 -6.5t-33.5 -22.5
t-18 -44.5t-5.5 -71.5v-52q0 -44 5.5 -72t18 -44t33.5 -22.5t53 -6.5q31 0 52.5 6.5t34 22.5t18 44t5.5 72v52zM312 636q34 0 34 37h63q0 -60 -21.5 -85.5t-65.5 -25.5q-21 0 -36 7.5t-27.5 16t-25 16t-28.5 7.5q-34 0 -34 -37h-64q0 61 22 86t65 25q22 0 37 -7.5t27.5 -16
t25 -16t28.5 -7.5z" />
    <glyph glyph-name="odieresis" unicode="&#xf6;" horiz-adv-x="516" 
d="M476 224q0 -67 -13 -112t-40 -72.5t-68 -39t-97 -11.5t-97 11.5t-68 39t-40 72.5t-13 112v52q0 67 13.5 112t40.5 72.5t68 39t96 11.5t96 -11.5t68 -39t40.5 -72.5t13.5 -112v-52zM368 276q0 43 -5.5 71.5t-18 44.5t-34 22.5t-52.5 6.5q-32 0 -53 -6.5t-33.5 -22.5
t-18 -44.5t-5.5 -71.5v-52q0 -44 5.5 -72t18 -44t33.5 -22.5t53 -6.5q31 0 52.5 6.5t34 22.5t18 44t5.5 72v52zM135 661h91v-91h-91v91zM290 661h92v-91h-92v91z" />
    <glyph glyph-name="divide" unicode="&#xf7;" horiz-adv-x="510" 
d="M50 235v80h410v-80h-410zM206 166h98v-92h-98v92zM206 476h98v-93h-98v93z" />
    <glyph glyph-name="oslash" unicode="&#xf8;" horiz-adv-x="516" 
d="M476 224q0 -67 -13 -112t-40 -72.5t-68 -39t-97 -11.5q-72 0 -119 19l-18 -28h-76l42 65q-47 54 -47 179v52q0 67 13.5 112t40.5 72.5t68 39t96 11.5q72 0 118 -20l19 29h76l-43 -67q24 -28 36 -71t12 -106v-52zM148 224q0 -23 1 -42t5 -34l169 261q-12 7 -28 9.5
t-37 2.5q-32 0 -53 -6.5t-33.5 -22.5t-18 -44.5t-5.5 -71.5v-52zM368 276q0 46 -6 75l-170 -261q23 -11 66 -11q31 0 52.5 6.5t34 22.5t18 44t5.5 72v52z" />
    <glyph glyph-name="ugrave" unicode="&#xf9;" horiz-adv-x="536" 
d="M402 0l-22 43q-40 -28 -77.5 -41t-87.5 -13q-87 0 -121 42.5t-34 138.5v330h108v-330q0 -54 21 -72.5t64 -18.5q27 0 58 10.5t57 33.5v377h108v-500h-74zM309 565h-67l-76 120h108z" />
    <glyph glyph-name="uacute" unicode="&#xfa;" horiz-adv-x="536" 
d="M402 0l-22 43q-40 -28 -77.5 -41t-87.5 -13q-87 0 -121 42.5t-34 138.5v330h108v-330q0 -54 21 -72.5t64 -18.5q27 0 58 10.5t57 33.5v377h108v-500h-74zM277 685h108l-76 -120h-67z" />
    <glyph glyph-name="ucircumflex" unicode="&#xfb;" horiz-adv-x="536" 
d="M402 0l-22 43q-40 -28 -77.5 -41t-87.5 -13q-87 0 -121 42.5t-34 138.5v330h108v-330q0 -54 21 -72.5t64 -18.5q27 0 58 10.5t57 33.5v377h108v-500h-74zM386 565h-71l-47 62l-46 -62h-71l57 120h120z" />
    <glyph glyph-name="udieresis" unicode="&#xfc;" horiz-adv-x="536" 
d="M402 0l-22 43q-40 -28 -77.5 -41t-87.5 -13q-87 0 -121 42.5t-34 138.5v330h108v-330q0 -54 21 -72.5t64 -18.5q27 0 58 10.5t57 33.5v377h108v-500h-74zM145 661h91v-91h-91v91zM300 661h92v-91h-92v91z" />
    <glyph glyph-name="yacute" unicode="&#xfd;" horiz-adv-x="504" 
d="M20 500h116l116 -372h2l114 372h116l-199 -562q-12 -33 -26 -55.5t-35 -36.5t-49.5 -20t-68.5 -6q-14 0 -31.5 2.5t-29.5 7.5v90q14 -5 30 -7.5t31 -2.5q18 0 30.5 3t22 10.5t16.5 19.5t14 29l11 29zM257 685h108l-76 -120h-67z" />
    <glyph glyph-name="thorn" unicode="&#xfe;" horiz-adv-x="538" 
d="M60 670h108v-205q32 22 66.5 34t72.5 12q42 0 76.5 -8.5t58.5 -32.5t37.5 -66.5t13.5 -110.5v-86q0 -68 -13.5 -110.5t-37.5 -66.5t-58.5 -32.5t-76.5 -8.5q-38 0 -72.5 12t-66.5 34v-205h-108v840zM385 288q0 39 -6 64.5t-18 40.5t-30 21.5t-41 6.5q-33 0 -64.5 -10.5
t-57.5 -33.5v-254q26 -23 57.5 -33.5t64.5 -10.5q23 0 41 6.5t30 21.5t18 40.5t6 64.5v76z" />
    <glyph glyph-name="ydieresis" unicode="&#xff;" horiz-adv-x="504" 
d="M20 500h116l116 -372h2l114 372h116l-199 -562q-12 -33 -26 -55.5t-35 -36.5t-49.5 -20t-68.5 -6q-14 0 -31.5 2.5t-29.5 7.5v90q14 -5 30 -7.5t31 -2.5q18 0 30.5 3t22 10.5t16.5 19.5t14 29l11 29zM129 661h91v-91h-91v91zM284 661h92v-91h-92v91z" />
    <glyph glyph-name="Amacron" unicode="&#x100;" horiz-adv-x="530" 
d="M365 141h-201l-35 -141h-114l180 650h139l181 -650h-114zM186 231h157l-77 319h-2zM148 800h236v-71h-236v71z" />
    <glyph glyph-name="amacron" unicode="&#x101;" horiz-adv-x="506" 
d="M211 205q-35 -5 -50.5 -21t-15.5 -44t18.5 -44.5t58.5 -16.5q43 0 72 11t55 33v99zM215 -11q-95 0 -137 38.5t-42 104.5q0 137 164 149l149 10v51q0 38 -18.5 58.5t-75.5 20.5q-54 0 -74 -21t-20 -59h-108q0 90 50 130t152 40q111 0 156.5 -40.5t45.5 -128.5v-342h-74
l-22 43q-25 -20 -61.5 -37t-84.5 -17zM141 650h236v-71h-236v71z" />
    <glyph glyph-name="Abreve" unicode="&#x102;" horiz-adv-x="530" 
d="M365 141h-201l-35 -141h-114l180 650h139l181 -650h-114zM186 231h157l-77 319h-2zM265 707q-61 0 -91.5 33.5t-30.5 96.5h66q0 -62 56 -62q57 0 57 62h66q0 -63 -30.5 -96.5t-92.5 -33.5z" />
    <glyph glyph-name="abreve" unicode="&#x103;" horiz-adv-x="506" 
d="M211 205q-35 -5 -50.5 -21t-15.5 -44t18.5 -44.5t58.5 -16.5q43 0 72 11t55 33v99zM215 -11q-95 0 -137 38.5t-42 104.5q0 137 164 149l149 10v51q0 38 -18.5 58.5t-75.5 20.5q-54 0 -74 -21t-20 -59h-108q0 90 50 130t152 40q111 0 156.5 -40.5t45.5 -128.5v-342h-74
l-22 43q-25 -20 -61.5 -37t-84.5 -17zM253 557q-61 0 -91.5 33.5t-30.5 96.5h66q0 -62 56 -62q57 0 57 62h66q0 -63 -30.5 -96.5t-92.5 -33.5z" />
    <glyph glyph-name="Aogonek" unicode="&#x104;" horiz-adv-x="530" 
d="M365 141h-201l-35 -141h-114l180 650h139l181 -650q-50 -36 -50 -76q0 -16 10 -23t26 -7h14v-65h-50q-38 0 -59.5 17t-21.5 53q0 28 15.5 54.5t44.5 46.5h-43zM186 231h157l-77 319h-2z" />
    <glyph glyph-name="aogonek" unicode="&#x105;" horiz-adv-x="516" 
d="M461 -171h-50q-38 0 -59.5 17t-21.5 53q0 27 14.5 53t43.5 46l-23 45q-25 -20 -61.5 -37t-84.5 -17q-95 0 -137 38.5t-42 104.5q0 137 164 149l149 10v51q0 38 -18.5 58.5t-75.5 20.5q-54 0 -74 -21t-20 -59h-108q0 90 50 130t152 40q111 0 156.5 -40.5t45.5 -128.5v-342
q-50 -36 -50 -76q0 -16 10 -23t26 -7h14v-65zM215 205q-35 -5 -50.5 -21t-15.5 -44t18.5 -44.5t58.5 -16.5q43 0 72 11t55 33v99z" />
    <glyph glyph-name="Cacute" unicode="&#x106;" horiz-adv-x="545" 
d="M278 83q60 0 86 25.5t26 88.5h110q0 -110 -53 -159t-169 -49q-59 0 -102 13t-71 40.5t-41.5 72t-13.5 107.5v206q0 126 55 179.5t173 53.5q116 0 169 -49t53 -159h-110q0 60 -26 87t-86 27q-62 0 -90 -27.5t-28 -100.5v-228q0 -73 28 -100.5t90 -27.5zM279 835h108
l-76 -120h-67z" />
    <glyph glyph-name="cacute" unicode="&#x107;" horiz-adv-x="514" 
d="M361 327q-2 55 -23.5 74.5t-73.5 19.5q-32 0 -53 -6.5t-34 -22.5t-18.5 -44.5t-5.5 -71.5v-52q0 -44 5.5 -72t18.5 -44t34 -22.5t53 -6.5q52 0 73.5 19t23.5 75h108q0 -52 -13 -87t-39 -56.5t-64.5 -31t-88.5 -9.5q-56 0 -97 11t-68 38t-40.5 72.5t-13.5 113.5v52
q0 68 13.5 113.5t41 72.5t68.5 38t96 11q50 0 88.5 -9.5t64.5 -31t39 -56.5t13 -87h-108zM275 685h108l-76 -120h-67z" />
    <glyph glyph-name="Ccircumflex" unicode="&#x108;" horiz-adv-x="545" 
d="M278 83q60 0 86 25.5t26 88.5h110q0 -110 -53 -159t-169 -49q-59 0 -102 13t-71 40.5t-41.5 72t-13.5 107.5v206q0 126 55 179.5t173 53.5q116 0 169 -49t53 -159h-110q0 60 -26 87t-86 27q-62 0 -90 -27.5t-28 -100.5v-228q0 -73 28 -100.5t90 -27.5zM396 715h-71
l-47 62l-46 -62h-71l57 120h120z" />
    <glyph glyph-name="ccircumflex" unicode="&#x109;" horiz-adv-x="514" 
d="M361 327q-2 55 -23.5 74.5t-73.5 19.5q-32 0 -53 -6.5t-34 -22.5t-18.5 -44.5t-5.5 -71.5v-52q0 -44 5.5 -72t18.5 -44t34 -22.5t53 -6.5q52 0 73.5 19t23.5 75h108q0 -52 -13 -87t-39 -56.5t-64.5 -31t-88.5 -9.5q-56 0 -97 11t-68 38t-40.5 72.5t-13.5 113.5v52
q0 68 13.5 113.5t41 72.5t68.5 38t96 11q50 0 88.5 -9.5t64.5 -31t39 -56.5t13 -87h-108zM385 565h-71l-47 62l-46 -62h-71l57 120h120z" />
    <glyph glyph-name="Cdotaccent" unicode="&#x10a;" horiz-adv-x="545" 
d="M278 83q60 0 86 25.5t26 88.5h110q0 -110 -53 -159t-169 -49q-59 0 -102 13t-71 40.5t-41.5 72t-13.5 107.5v206q0 126 55 179.5t173 53.5q116 0 169 -49t53 -159h-110q0 60 -26 87t-86 27q-62 0 -90 -27.5t-28 -100.5v-228q0 -73 28 -100.5t90 -27.5zM233 811h91v-91
h-91v91z" />
    <glyph glyph-name="cdotaccent" unicode="&#x10b;" horiz-adv-x="514" 
d="M361 327q-2 55 -23.5 74.5t-73.5 19.5q-32 0 -53 -6.5t-34 -22.5t-18.5 -44.5t-5.5 -71.5v-52q0 -44 5.5 -72t18.5 -44t34 -22.5t53 -6.5q52 0 73.5 19t23.5 75h108q0 -52 -13 -87t-39 -56.5t-64.5 -31t-88.5 -9.5q-56 0 -97 11t-68 38t-40.5 72.5t-13.5 113.5v52
q0 68 13.5 113.5t41 72.5t68.5 38t96 11q50 0 88.5 -9.5t64.5 -31t39 -56.5t13 -87h-108zM221 661h91v-91h-91v91z" />
    <glyph glyph-name="Ccaron" unicode="&#x10c;" horiz-adv-x="545" 
d="M278 83q60 0 86 25.5t26 88.5h110q0 -110 -53 -159t-169 -49q-59 0 -102 13t-71 40.5t-41.5 72t-13.5 107.5v206q0 126 55 179.5t173 53.5q116 0 169 -49t53 -159h-110q0 60 -26 87t-86 27q-62 0 -90 -27.5t-28 -100.5v-228q0 -73 28 -100.5t90 -27.5zM337 715h-120
l-57 120h71l46 -62l47 62h71z" />
    <glyph glyph-name="ccaron" unicode="&#x10d;" horiz-adv-x="514" 
d="M361 327q-2 55 -23.5 74.5t-73.5 19.5q-32 0 -53 -6.5t-34 -22.5t-18.5 -44.5t-5.5 -71.5v-52q0 -44 5.5 -72t18.5 -44t34 -22.5t53 -6.5q52 0 73.5 19t23.5 75h108q0 -52 -13 -87t-39 -56.5t-64.5 -31t-88.5 -9.5q-56 0 -97 11t-68 38t-40.5 72.5t-13.5 113.5v52
q0 68 13.5 113.5t41 72.5t68.5 38t96 11q50 0 88.5 -9.5t64.5 -31t39 -56.5t13 -87h-108zM327 565h-120l-57 120h71l46 -62l47 62h71z" />
    <glyph glyph-name="Dcaron" unicode="&#x10e;" horiz-adv-x="562" 
d="M171 556v-462h97q37 0 63 7t42 22.5t23 40.5t7 61v205q0 43 -9 68.5t-26 38t-42 16t-58 3.5h-97zM61 0v650h209q60 0 105 -9.5t76 -35t46.5 -70.5t15.5 -116v-187q0 -71 -15.5 -116t-46.5 -71t-76 -35.5t-105 -9.5h-209zM327 715h-120l-57 120h71l46 -62l47 62h71z" />
    <glyph glyph-name="dcaron" unicode="&#x10f;" horiz-adv-x="636" 
d="M478 670v-670h-74l-22 43q-34 -26 -71 -40t-80 -14q-42 0 -76.5 8.5t-58.5 32.5t-37.5 66.5t-13.5 110.5v86q0 68 13.5 110.5t37.5 66.5t58.5 32.5t76.5 8.5q38 0 72.5 -12t66.5 -34v205h108zM370 377q-26 23 -57.5 33.5t-64.5 10.5q-23 0 -41 -6.5t-30 -21.5t-18 -40.5
t-6 -64.5v-76q0 -75 24 -104t71 -29q33 0 64.5 10.5t57.5 33.5v254zM539 670h92l-28 -217h-64v217z" />
    <glyph glyph-name="Dcroat" unicode="&#x110;" horiz-adv-x="570" 
d="M68 0v291h-55v76h55v283h209q60 0 105 -9.5t76 -35t46.5 -70.5t15.5 -116v-187q0 -71 -15.5 -116t-46.5 -71t-76 -35.5t-105 -9.5h-209zM178 556v-189h100v-76h-100v-197h97q37 0 63 7t42 22.5t23 40.5t7 61v205q0 43 -9 68.5t-26 38t-42 16t-58 3.5h-97z" />
    <glyph glyph-name="dcroat" unicode="&#x111;" horiz-adv-x="538" 
d="M478 670v-55h51v-57h-51v-558h-74l-22 43q-34 -26 -71 -40t-80 -14q-42 0 -76.5 8.5t-58.5 32.5t-37.5 66.5t-13.5 110.5v86q0 68 13.5 110.5t37.5 66.5t58.5 32.5t76.5 8.5q38 0 72.5 -12t66.5 -34v93h-93v57h93v55h108zM370 377q-26 23 -57.5 33.5t-64.5 10.5
q-23 0 -41 -6.5t-30 -21.5t-18 -40.5t-6 -64.5v-76q0 -75 24 -104t71 -29q33 0 64.5 10.5t57.5 33.5v254z" />
    <glyph glyph-name="Emacron" unicode="&#x112;" horiz-adv-x="500" 
d="M65 650h385v-94h-275v-181h240v-90h-240v-191h275v-94h-385v650zM141 800h236v-71h-236v71z" />
    <glyph glyph-name="emacron" unicode="&#x113;" horiz-adv-x="511" 
d="M363 288q0 34 -2.5 59.5t-13 41.5t-31 24t-55.5 8q-34 0 -55 -7.5t-33 -23t-16 -41t-4 -61.5h210zM261 79q30 0 55 1t47 3t42.5 5t41.5 7v-88q-39 -8 -82.5 -13t-96.5 -5q-55 0 -97 10.5t-70 37t-42 72t-14 115.5v52q0 68 14 113t41 72t67.5 38.5t93.5 11.5q50 0 89 -11
t66 -38t41 -72t14 -114v-64h-318q0 -38 5 -63t17.5 -41t33 -22.5t52.5 -6.5zM149 650h236v-71h-236v71z" />
    <glyph glyph-name="Ebreve" unicode="&#x114;" horiz-adv-x="500" 
d="M65 650h385v-94h-275v-181h240v-90h-240v-191h275v-94h-385v650zM262 707q-61 0 -91.5 33.5t-30.5 96.5h66q0 -62 56 -62q57 0 57 62h66q0 -63 -30.5 -96.5t-92.5 -33.5z" />
    <glyph glyph-name="ebreve" unicode="&#x115;" horiz-adv-x="511" 
d="M363 288q0 34 -2.5 59.5t-13 41.5t-31 24t-55.5 8q-34 0 -55 -7.5t-33 -23t-16 -41t-4 -61.5h210zM261 79q30 0 55 1t47 3t42.5 5t41.5 7v-88q-39 -8 -82.5 -13t-96.5 -5q-55 0 -97 10.5t-70 37t-42 72t-14 115.5v52q0 68 14 113t41 72t67.5 38.5t93.5 11.5q50 0 89 -11
t66 -38t41 -72t14 -114v-64h-318q0 -38 5 -63t17.5 -41t33 -22.5t52.5 -6.5zM270 557q-61 0 -91.5 33.5t-30.5 96.5h66q0 -62 56 -62q57 0 57 62h66q0 -63 -30.5 -96.5t-92.5 -33.5z" />
    <glyph glyph-name="Edotaccent" unicode="&#x116;" horiz-adv-x="500" 
d="M65 650h385v-94h-275v-181h240v-90h-240v-191h275v-94h-385v650zM223 811h91v-91h-91v91z" />
    <glyph glyph-name="edotaccent" unicode="&#x117;" horiz-adv-x="511" 
d="M363 288q0 34 -2.5 59.5t-13 41.5t-31 24t-55.5 8q-34 0 -55 -7.5t-33 -23t-16 -41t-4 -61.5h210zM261 79q30 0 55 1t47 3t42.5 5t41.5 7v-88q-39 -8 -82.5 -13t-96.5 -5q-55 0 -97 10.5t-70 37t-42 72t-14 115.5v52q0 68 14 113t41 72t67.5 38.5t93.5 11.5q50 0 89 -11
t66 -38t41 -72t14 -114v-64h-318q0 -38 5 -63t17.5 -41t33 -22.5t52.5 -6.5zM221 661h91v-91h-91v91z" />
    <glyph glyph-name="Eogonek" unicode="&#x118;" horiz-adv-x="500" 
d="M65 650h385v-94h-275v-181h240v-90h-240v-191h275v-94q-22 -15 -36 -33t-14 -41q0 -17 9.5 -23.5t26.5 -6.5h14v-65h-50q-38 0 -61 16.5t-23 52.5q0 28 15 54t45 46h-311v650z" />
    <glyph glyph-name="eogonek" unicode="&#x119;" horiz-adv-x="511" 
d="M447 -164h-50q-38 0 -59.5 17t-21.5 53q0 50 44 88q-21 -2 -44 -3.5t-48 -1.5q-55 0 -97 10.5t-70 37t-42 72t-14 115.5v52q0 68 14 113t41 72t67.5 38.5t93.5 11.5q50 0 89 -11t66 -38t41 -72t14 -114v-64h-318q0 -38 5 -63t17.5 -41t33 -22.5t52.5 -6.5q30 0 55 1t47 3
t42.5 5t41.5 7v-88q-50 -36 -50 -76q0 -16 10 -23t26 -7h14v-65zM363 288q0 34 -2.5 59.5t-13 41.5t-31 24t-55.5 8q-34 0 -55 -7.5t-33 -23t-16 -41t-4 -61.5h210z" />
    <glyph glyph-name="Ecaron" unicode="&#x11a;" horiz-adv-x="500" 
d="M65 650h385v-94h-275v-181h240v-90h-240v-191h275v-94h-385v650zM320 715h-120l-57 120h71l46 -62l47 62h71z" />
    <glyph glyph-name="ecaron" unicode="&#x11b;" horiz-adv-x="511" 
d="M363 288q0 34 -2.5 59.5t-13 41.5t-31 24t-55.5 8q-34 0 -55 -7.5t-33 -23t-16 -41t-4 -61.5h210zM261 79q30 0 55 1t47 3t42.5 5t41.5 7v-88q-39 -8 -82.5 -13t-96.5 -5q-55 0 -97 10.5t-70 37t-42 72t-14 115.5v52q0 68 14 113t41 72t67.5 38.5t93.5 11.5q50 0 89 -11
t66 -38t41 -72t14 -114v-64h-318q0 -38 5 -63t17.5 -41t33 -22.5t52.5 -6.5zM328 565h-120l-57 120h71l46 -62l47 62h71z" />
    <glyph glyph-name="Gcircumflex" unicode="&#x11c;" horiz-adv-x="570" 
d="M278 -11q-59 0 -102 13t-71 40.5t-41.5 72t-13.5 107.5v206q0 126 55 179.5t173 53.5q116 0 169 -49t53 -159h-110q0 60 -26 87t-86 27q-62 0 -90 -27.5t-28 -100.5v-228q0 -38 7.5 -62.5t22.5 -39t38 -20.5t55 -6q62 0 89.5 24.5t27.5 89.5v88h-118v90h228v-375h-55
l-18 51q-29 -31 -65.5 -46.5t-93.5 -15.5zM399 715h-71l-47 62l-46 -62h-71l57 120h120z" />
    <glyph glyph-name="gcircumflex" unicode="&#x11d;" horiz-adv-x="538" 
d="M370 47q-32 -22 -66.5 -34.5t-72.5 -12.5q-42 0 -76.5 8.5t-58.5 32.5t-37.5 66.5t-13.5 110.5v75q0 68 13.5 110.5t37.5 66.5t58.5 32.5t76.5 8.5q43 0 80 -14t71 -40l22 43h74v-499q0 -94 -51 -137.5t-158 -43.5q-35 0 -78.5 4.5t-79.5 14.5v93q39 -11 78.5 -16.5
t78.5 -5.5q54 0 78 19t24 72v46zM370 377q-26 23 -57.5 33.5t-64.5 10.5q-23 0 -41 -6.5t-30 -21.5t-18 -40.5t-6 -64.5v-65q0 -75 24 -104t71 -29q33 0 64.5 10.5t57.5 33.5v243zM387 565h-71l-47 62l-46 -62h-71l57 120h120z" />
    <glyph glyph-name="Gbreve" unicode="&#x11e;" horiz-adv-x="570" 
d="M278 -11q-59 0 -102 13t-71 40.5t-41.5 72t-13.5 107.5v206q0 126 55 179.5t173 53.5q116 0 169 -49t53 -159h-110q0 60 -26 87t-86 27q-62 0 -90 -27.5t-28 -100.5v-228q0 -38 7.5 -62.5t22.5 -39t38 -20.5t55 -6q62 0 89.5 24.5t27.5 89.5v88h-118v90h228v-375h-55
l-18 51q-29 -31 -65.5 -46.5t-93.5 -15.5zM280 707q-61 0 -91.5 33.5t-30.5 96.5h66q0 -62 56 -62q57 0 57 62h66q0 -63 -30.5 -96.5t-92.5 -33.5z" />
    <glyph glyph-name="gbreve" unicode="&#x11f;" horiz-adv-x="538" 
d="M370 47q-32 -22 -66.5 -34.5t-72.5 -12.5q-42 0 -76.5 8.5t-58.5 32.5t-37.5 66.5t-13.5 110.5v75q0 68 13.5 110.5t37.5 66.5t58.5 32.5t76.5 8.5q43 0 80 -14t71 -40l22 43h74v-499q0 -94 -51 -137.5t-158 -43.5q-35 0 -78.5 4.5t-79.5 14.5v93q39 -11 78.5 -16.5
t78.5 -5.5q54 0 78 19t24 72v46zM370 377q-26 23 -57.5 33.5t-64.5 10.5q-23 0 -41 -6.5t-30 -21.5t-18 -40.5t-6 -64.5v-65q0 -75 24 -104t71 -29q33 0 64.5 10.5t57.5 33.5v243zM259 557q-61 0 -91.5 33.5t-30.5 96.5h66q0 -62 56 -62q57 0 57 62h66q0 -63 -30.5 -96.5
t-92.5 -33.5z" />
    <glyph glyph-name="Gdotaccent" unicode="&#x120;" horiz-adv-x="570" 
d="M278 -11q-59 0 -102 13t-71 40.5t-41.5 72t-13.5 107.5v206q0 126 55 179.5t173 53.5q116 0 169 -49t53 -159h-110q0 60 -26 87t-86 27q-62 0 -90 -27.5t-28 -100.5v-228q0 -38 7.5 -62.5t22.5 -39t38 -20.5t55 -6q62 0 89.5 24.5t27.5 89.5v88h-118v90h228v-375h-55
l-18 51q-29 -31 -65.5 -46.5t-93.5 -15.5zM237 811h91v-91h-91v91z" />
    <glyph glyph-name="gdotaccent" unicode="&#x121;" horiz-adv-x="538" 
d="M370 47q-32 -22 -66.5 -34.5t-72.5 -12.5q-42 0 -76.5 8.5t-58.5 32.5t-37.5 66.5t-13.5 110.5v75q0 68 13.5 110.5t37.5 66.5t58.5 32.5t76.5 8.5q43 0 80 -14t71 -40l22 43h74v-499q0 -94 -51 -137.5t-158 -43.5q-35 0 -78.5 4.5t-79.5 14.5v93q39 -11 78.5 -16.5
t78.5 -5.5q54 0 78 19t24 72v46zM370 377q-26 23 -57.5 33.5t-64.5 10.5q-23 0 -41 -6.5t-30 -21.5t-18 -40.5t-6 -64.5v-65q0 -75 24 -104t71 -29q33 0 64.5 10.5t57.5 33.5v243zM225 661h91v-91h-91v91z" />
    <glyph glyph-name="Gcommaaccent" unicode="&#x122;" horiz-adv-x="570" 
d="M278 -11q-59 0 -102 13t-71 40.5t-41.5 72t-13.5 107.5v206q0 126 55 179.5t173 53.5q116 0 169 -49t53 -159h-110q0 60 -26 87t-86 27q-62 0 -90 -27.5t-28 -100.5v-228q0 -38 7.5 -62.5t22.5 -39t38 -20.5t55 -6q62 0 89.5 24.5t27.5 89.5v88h-118v90h228v-375h-55
l-18 51q-29 -31 -65.5 -46.5t-93.5 -15.5zM231 -60h109l-66 -130h-75z" />
    <glyph glyph-name="gcommaaccent" unicode="&#x123;" horiz-adv-x="538" 
d="M370 47q-32 -22 -66.5 -34.5t-72.5 -12.5q-42 0 -76.5 8.5t-58.5 32.5t-37.5 66.5t-13.5 110.5v75q0 68 13.5 110.5t37.5 66.5t58.5 32.5t76.5 8.5q43 0 80 -14t71 -40l22 43h74v-499q0 -94 -51 -137.5t-158 -43.5q-35 0 -78.5 4.5t-79.5 14.5v93q39 -11 78.5 -16.5
t78.5 -5.5q54 0 78 19t24 72v46zM370 377q-26 23 -57.5 33.5t-64.5 10.5q-23 0 -41 -6.5t-30 -21.5t-18 -40.5t-6 -64.5v-65q0 -75 24 -104t71 -29q33 0 64.5 10.5t57.5 33.5v243zM318.005 559.996h-108.993l65.9961 129.992h74.9951z" />
    <glyph glyph-name="Hcircumflex" unicode="&#x124;" horiz-adv-x="572" 
d="M507 0h-110v285h-222v-285h-110v650h110v-275h222v275h110v-650zM404 715h-71l-47 62l-46 -62h-71l57 120h120z" />
    <glyph glyph-name="hcircumflex" unicode="&#x125;" horiz-adv-x="545" 
d="M168 465q38 25 73.5 35.5t79.5 10.5q87 0 121 -42.5t34 -138.5v-330h-108v330q0 54 -21 72.5t-64 18.5q-26 0 -58 -10.5t-57 -33.5v-377h-108v670h108v-205zM233 720h-71l-47 62l-46 -62h-71l57 120h120z" />
    <glyph glyph-name="Hbar" unicode="&#x126;" horiz-adv-x="572" 
d="M10 556h55v94h110v-94h222v94h110v-94h55v-67h-55v-489h-110v285h-222v-285h-110v489h-55v67zM397 375v114h-222v-114h222z" />
    <glyph glyph-name="hbar" unicode="&#x127;" horiz-adv-x="531" 
d="M168 624h269v-59h-269v-100q38 25 73.5 35.5t79.5 10.5q87 0 121 -42.5t34 -138.5v-330h-108v330q0 54 -21 72.5t-64 18.5q-26 0 -58 -10.5t-57 -33.5v-377h-108v670h108v-46z" />
    <glyph glyph-name="Itilde" unicode="&#x128;" horiz-adv-x="240" 
d="M65 650h110v-650h-110v650zM175 786q34 0 34 37h63q0 -60 -21.5 -85.5t-65.5 -25.5q-21 0 -36 7.5t-27.5 16t-25 16t-28.5 7.5q-34 0 -34 -37h-64q0 61 22 86t65 25q22 0 37 -7.5t27.5 -16t25 -16t28.5 -7.5z" />
    <glyph glyph-name="itilde" unicode="&#x129;" 
d="M156 634q26 0 26 29h65q0 -60 -19 -85.5t-57 -25.5q-19 0 -32 6t-23.5 13.5t-20.5 13.5t-22 6q-27 0 -27 -29h-65q0 61 19 86t57 25q19 0 32.5 -6t24 -13.5t20.5 -13.5t22 -6zM60 500h108v-500h-108v500z" />
    <glyph glyph-name="Imacron" unicode="&#x12a;" horiz-adv-x="240" 
d="M65 650h110v-650h-110v650zM3 800h236v-71h-236v71z" />
    <glyph glyph-name="imacron" unicode="&#x12b;" 
d="M0 632h228v-76h-228v76zM60 500h108v-500h-108v500z" />
    <glyph glyph-name="Ibreve" unicode="&#x12c;" horiz-adv-x="240" 
d="M65 650h110v-650h-110v650zM121 707q-61 0 -91.5 33.5t-30.5 96.5h66q0 -62 56 -62q57 0 57 62h66q0 -63 -30.5 -96.5t-92.5 -33.5z" />
    <glyph glyph-name="ibreve" unicode="&#x12d;" 
d="M60 500h108v-500h-108v500zM116 557q-61 0 -91.5 33.5t-30.5 96.5h66q0 -62 56 -62q57 0 57 62h66q0 -63 -30.5 -96.5t-92.5 -33.5z" />
    <glyph glyph-name="Iogonek" unicode="&#x12e;" horiz-adv-x="240" 
d="M65 650h110v-650q-50 -36 -50 -76q0 -16 10 -23t26 -7h14v-65h-50q-38 0 -59.5 17t-21.5 53q0 28 16 54.5t46 46.5h-41v650z" />
    <glyph glyph-name="iogonek" unicode="&#x12f;" 
d="M60 500h108v-500h1q-50 -36 -50 -76q0 -16 10 -23t26 -7h14v-65h-50q-38 0 -59.5 17t-21.5 53q0 28 16 54.5t46 46.5h-40v500zM60 670h108v-108h-108v108z" />
    <glyph glyph-name="Idotaccent" unicode="&#x130;" horiz-adv-x="240" 
d="M65 650h110v-650h-110v650zM74 811h91v-91h-91v91z" />
    <glyph glyph-name="dotlessi" unicode="&#x131;" 
d="M60 500h108v-500h-108v500z" />
    <glyph glyph-name="Jcircumflex" unicode="&#x134;" horiz-adv-x="354" 
d="M75 556v94h219v-500q0 -40 -6.5 -70t-25.5 -50.5t-52 -30.5t-86 -10q-26 0 -48.5 3t-45.5 8v94q17 -5 40.5 -8t45.5 -3q36 0 52 16t16 52v405h-109zM295 715h-71l-47 62l-46 -62h-71l57 120h120z" />
    <glyph glyph-name="jcircumflex" unicode="&#x135;" 
d="M168 -39q0 -71 -29 -106t-100 -35q-26 0 -47.5 3t-36.5 8v90q11 -2 24.5 -5t33.5 -3q26 0 36.5 13t10.5 36v538h108v-539zM232 565h-71l-47 62l-46 -62h-71l57 120h120z" />
    <glyph glyph-name="Kcommaaccent" unicode="&#x136;" horiz-adv-x="516" 
d="M261 335l236 -335h-127q-38 56 -67 98.5t-50 73t-35.5 51t-23.5 33.5q-21 30 -23 30v-286h-110v650h110v-276l192 276h129zM211 -60h109l-66 -130h-75z" />
    <glyph glyph-name="kcommaaccent" unicode="&#x137;" horiz-adv-x="477" 
d="M168 0h-108v670h108v-372h2l158 202h127l-194 -234q51 -67 103 -133.5t103 -132.5h-131l-166 230h-2v-230zM200 -60h109l-66 -130h-75z" />
    <glyph glyph-name="kgreenlandic" unicode="&#x138;" horiz-adv-x="477" 
d="M168 0h-108v500h108v-202h2l158 202h127l-194 -234q51 -67 103 -133.5t103 -132.5h-131l-166 230h-2v-230z" />
    <glyph glyph-name="Lacute" unicode="&#x139;" horiz-adv-x="417" 
d="M61 650h110v-556h217v-94h-327v650zM121 835h108l-76 -120h-67z" />
    <glyph glyph-name="lacute" unicode="&#x13a;" 
d="M60 670h108v-670h-108v670zM118 845h108l-76 -120h-67z" />
    <glyph glyph-name="Lcommaaccent" unicode="&#x13b;" horiz-adv-x="417" 
d="M61 650h110v-556h217v-94h-327v650zM162 -60h109l-66 -130h-75z" />
    <glyph glyph-name="lcommaaccent" unicode="&#x13c;" 
d="M60 670h108v-670h-108v670zM59 -60h109l-66 -130h-75z" />
    <glyph glyph-name="Lcaron" unicode="&#x13d;" horiz-adv-x="417" 
d="M234 670h92l-27 -217h-65v217zM65 650h110v-556h217v-94h-327v650z" />
    <glyph glyph-name="lcaron" unicode="&#x13e;" horiz-adv-x="322" 
d="M60 670h108v-670h-108v670zM227 670h92l-28 -217h-64v217z" />
    <glyph glyph-name="Ldot" unicode="&#x13f;" horiz-adv-x="417" 
d="M236 383h106v-106h-106v106zM65 650h110v-556h217v-94h-327v650z" />
    <glyph glyph-name="ldot" unicode="&#x140;" horiz-adv-x="348" 
d="M60 670h108v-670h-108v670zM223 388h120v-120h-120v120z" />
    <glyph glyph-name="Lslash" unicode="&#x141;" horiz-adv-x="424" 
d="M75 248l-60 -24v78l60 24v324h110v-280q28 11 55.5 22t54.5 22v-78q-27 -11 -54.5 -22t-55.5 -22v-198h214v-94h-324v248z" />
    <glyph glyph-name="lslash" unicode="&#x142;" horiz-adv-x="265" 
d="M79 253l-69 -27v77l69 27v340h106v-300l69 27v-77l-69 -27v-293h-106v253z" />
    <glyph glyph-name="Nacute" unicode="&#x143;" horiz-adv-x="569" 
d="M510 0h-138l-210 514q1 -18 2 -43.5t1.5 -53t1 -53.5t0.5 -44v-320h-106v650h138l210 -514q0 19 -1 44.5t-2 51.5t-1.5 49.5t-0.5 38.5v330h106v-650zM291 835h108l-76 -120h-67z" />
    <glyph glyph-name="nacute" unicode="&#x144;" horiz-adv-x="536" 
d="M134 500l22 -43q40 28 77.5 41t87.5 13q87 0 121 -42.5t34 -138.5v-330h-108v330q0 54 -21 72.5t-64 18.5q-27 0 -58 -10.5t-57 -33.5v-377h-108v500h74zM280 685h108l-76 -120h-67z" />
    <glyph glyph-name="Ncommaaccent" unicode="&#x145;" horiz-adv-x="569" 
d="M510 0h-138l-210 514q1 -18 2 -43.5t1.5 -53t1 -53.5t0.5 -44v-320h-106v650h138l210 -514q0 19 -1 44.5t-2 51.5t-1.5 49.5t-0.5 38.5v330h106v-650zM238 -60h109l-66 -130h-75z" />
    <glyph glyph-name="ncommaaccent" unicode="&#x146;" horiz-adv-x="536" 
d="M134 500l22 -43q40 28 77.5 41t87.5 13q87 0 121 -42.5t34 -138.5v-330h-108v330q0 54 -21 72.5t-64 18.5q-27 0 -58 -10.5t-57 -33.5v-377h-108v500h74zM217 -60h109l-66 -130h-75z" />
    <glyph glyph-name="Ncaron" unicode="&#x147;" horiz-adv-x="569" 
d="M510 0h-138l-210 514q1 -18 2 -43.5t1.5 -53t1 -53.5t0.5 -44v-320h-106v650h138l210 -514q0 19 -1 44.5t-2 51.5t-1.5 49.5t-0.5 38.5v330h106v-650zM345 715h-120l-57 120h71l46 -62l47 62h71z" />
    <glyph glyph-name="ncaron" unicode="&#x148;" horiz-adv-x="536" 
d="M134 500l22 -43q40 28 77.5 41t87.5 13q87 0 121 -42.5t34 -138.5v-330h-108v330q0 54 -21 72.5t-64 18.5q-27 0 -58 -10.5t-57 -33.5v-377h-108v500h74zM332 565h-120l-57 120h71l46 -62l47 62h71z" />
    <glyph glyph-name="Eng" unicode="&#x14a;" horiz-adv-x="579" 
d="M514 -19q0 -40 -6.5 -70t-25.5 -50.5t-52 -30.5t-86 -10q-26 0 -48.5 3t-45.5 8v94q17 -5 40.5 -8t45.5 -3q36 0 52 16t16 52l-238 532q1 -18 2 -43.5t1.5 -53t1 -53.5t0.5 -44v-320h-106v650h138l210 -470q0 19 -1 44.5t-2 51.5t-1.5 49.5t-0.5 38.5v286h106v-669z" />
    <glyph glyph-name="eng" unicode="&#x14b;" horiz-adv-x="531" 
d="M134 500l22 -43q40 28 77.5 41t87.5 13q87 0 121 -42.5t34 -138.5v-369q0 -71 -29 -106t-100 -35q-26 0 -47.5 3t-36.5 8v90q11 -2 24.5 -5t33.5 -3q26 0 36.5 13t10.5 36v368q0 54 -21 72.5t-64 18.5q-27 0 -58 -10.5t-57 -33.5v-377h-108v500h74z" />
    <glyph glyph-name="Omacron" unicode="&#x14c;" horiz-adv-x="564" 
d="M160 214q0 -75 30 -103t92 -28t92 28t30 103v222q0 75 -30 103t-92 28t-92 -28t-30 -103v-222zM514 215q0 -61 -13.5 -104t-42 -70t-72.5 -39.5t-104 -12.5t-104 12.5t-72.5 39.5t-42 70t-13.5 104v220q0 61 13.5 104t42 70t72.5 39.5t104 12.5t104 -12.5t72.5 -39.5
t42 -70t13.5 -104v-220zM164 800h236v-71h-236v71z" />
    <glyph glyph-name="omacron" unicode="&#x14d;" horiz-adv-x="516" 
d="M476 224q0 -67 -13 -112t-40 -72.5t-68 -39t-97 -11.5t-97 11.5t-68 39t-40 72.5t-13 112v52q0 67 13.5 112t40.5 72.5t68 39t96 11.5t96 -11.5t68 -39t40.5 -72.5t13.5 -112v-52zM368 276q0 43 -5.5 71.5t-18 44.5t-34 22.5t-52.5 6.5q-32 0 -53 -6.5t-33.5 -22.5
t-18 -44.5t-5.5 -71.5v-52q0 -44 5.5 -72t18 -44t33.5 -22.5t53 -6.5q31 0 52.5 6.5t34 22.5t18 44t5.5 72v52zM141 650h236v-71h-236v71z" />
    <glyph glyph-name="Obreve" unicode="&#x14e;" horiz-adv-x="564" 
d="M160 214q0 -75 30 -103t92 -28t92 28t30 103v222q0 75 -30 103t-92 28t-92 -28t-30 -103v-222zM514 215q0 -61 -13.5 -104t-42 -70t-72.5 -39.5t-104 -12.5t-104 12.5t-72.5 39.5t-42 70t-13.5 104v220q0 61 13.5 104t42 70t72.5 39.5t104 12.5t104 -12.5t72.5 -39.5
t42 -70t13.5 -104v-220zM281 707q-61 0 -91.5 33.5t-30.5 96.5h66q0 -62 56 -62q57 0 57 62h66q0 -63 -30.5 -96.5t-92.5 -33.5z" />
    <glyph glyph-name="obreve" unicode="&#x14f;" horiz-adv-x="516" 
d="M476 224q0 -67 -13 -112t-40 -72.5t-68 -39t-97 -11.5t-97 11.5t-68 39t-40 72.5t-13 112v52q0 67 13.5 112t40.5 72.5t68 39t96 11.5t96 -11.5t68 -39t40.5 -72.5t13.5 -112v-52zM368 276q0 43 -5.5 71.5t-18 44.5t-34 22.5t-52.5 6.5q-32 0 -53 -6.5t-33.5 -22.5
t-18 -44.5t-5.5 -71.5v-52q0 -44 5.5 -72t18 -44t33.5 -22.5t53 -6.5q31 0 52.5 6.5t34 22.5t18 44t5.5 72v52zM258 557q-61 0 -91.5 33.5t-30.5 96.5h66q0 -62 56 -62q57 0 57 62h66q0 -63 -30.5 -96.5t-92.5 -33.5z" />
    <glyph glyph-name="Ohungarumlaut" unicode="&#x150;" horiz-adv-x="564" 
d="M160 214q0 -75 30 -103t92 -28t92 28t30 103v222q0 75 -30 103t-92 28t-92 -28t-30 -103v-222zM514 215q0 -61 -13.5 -104t-42 -70t-72.5 -39.5t-104 -12.5t-104 12.5t-72.5 39.5t-42 70t-13.5 104v220q0 61 13.5 104t42 70t72.5 39.5t104 12.5t104 -12.5t72.5 -39.5
t42 -70t13.5 -104v-220zM210 835h98l-51 -120h-63zM362 835h101l-76 -120h-67z" />
    <glyph glyph-name="ohungarumlaut" unicode="&#x151;" horiz-adv-x="516" 
d="M476 224q0 -67 -13 -112t-40 -72.5t-68 -39t-97 -11.5t-97 11.5t-68 39t-40 72.5t-13 112v52q0 67 13.5 112t40.5 72.5t68 39t96 11.5t96 -11.5t68 -39t40.5 -72.5t13.5 -112v-52zM368 276q0 43 -5.5 71.5t-18 44.5t-34 22.5t-52.5 6.5q-32 0 -53 -6.5t-33.5 -22.5
t-18 -44.5t-5.5 -71.5v-52q0 -44 5.5 -72t18 -44t33.5 -22.5t53 -6.5q31 0 52.5 6.5t34 22.5t18 44t5.5 72v52zM186 685h98l-51 -120h-63zM338 685h101l-76 -120h-67z" />
    <glyph glyph-name="OE" unicode="&#x152;" horiz-adv-x="835" 
d="M404 556h-122q-62 0 -92 -28t-30 -103v-200q0 -75 30 -103t92 -28h122v462zM789 650v-94h-275v-181h240v-90h-240v-191h275v-94h-507q-60 0 -104 12.5t-72.5 39.5t-42 70t-13.5 104v198q0 61 13.5 104t42 70t72.5 39.5t104 12.5h507z" />
    <glyph glyph-name="oe" unicode="&#x153;" horiz-adv-x="834" 
d="M584 79q30 0 55 1t47 3t42.5 5t41.5 7v-88q-39 -8 -82.5 -13t-96.5 -5q-60 0 -101.5 11.5t-67.5 43.5q-25 -30 -65.5 -42.5t-98.5 -12.5q-56 0 -97 11.5t-68 39t-40 72.5t-13 112v52q0 67 13.5 112t40.5 72.5t68 39t96 11.5q58 0 98 -13t66 -44q25 32 65 44.5t97 12.5
q50 0 89 -11t66 -38t41 -72t14 -114v-68h-318q0 -35 5 -59.5t17.5 -40t33 -22.5t52.5 -7zM368 276q0 43 -5.5 71.5t-18 44.5t-34 22.5t-52.5 6.5q-32 0 -53 -6.5t-33.5 -22.5t-18 -44.5t-5.5 -71.5v-52q0 -44 5.5 -72t18 -44t33.5 -22.5t53 -6.5q31 0 52.5 6.5t34 22.5
t18 44t5.5 72v52zM686 292q0 32 -3 56.5t-13.5 40.5t-31 24t-54.5 8q-33 0 -54 -7.5t-33 -23.5t-16.5 -40t-4.5 -58h210z" />
    <glyph glyph-name="Racute" unicode="&#x154;" horiz-adv-x="557" 
d="M61 650h214q57 0 100 -8.5t71.5 -32t43 -64t14.5 -103.5q0 -81 -26 -125.5t-80 -63.5l120 -253h-121l-109 237h-117v-237h-110v650zM277 327q30 0 52 4.5t35.5 17.5t20 35t6.5 57t-6.5 57.5t-20 35t-35.5 17.5t-52 5h-106v-229h106zM258 835h108l-76 -120h-67z" />
    <glyph glyph-name="racute" unicode="&#x155;" horiz-adv-x="329" 
d="M299 415q-81 0 -131 -44v-371h-108v500h74l22 -43q32 26 66.5 40t76.5 14v-96zM178 685h108l-76 -120h-67z" />
    <glyph glyph-name="Rcommaaccent" unicode="&#x156;" horiz-adv-x="557" 
d="M61 650h214q57 0 100 -8.5t71.5 -32t43 -64t14.5 -103.5q0 -81 -26 -125.5t-80 -63.5l120 -253h-121l-109 237h-117v-237h-110v650zM277 327q30 0 52 4.5t35.5 17.5t20 35t6.5 57t-6.5 57.5t-20 35t-35.5 17.5t-52 5h-106v-229h106zM227 -60h109l-66 -130h-75z" />
    <glyph glyph-name="rcommaaccent" unicode="&#x157;" horiz-adv-x="329" 
d="M299 415q-81 0 -131 -44v-371h-108v500h74l22 -43q32 26 66.5 40t76.5 14v-96zM59 -60h109l-66 -130h-75z" />
    <glyph glyph-name="Rcaron" unicode="&#x158;" horiz-adv-x="557" 
d="M61 650h214q57 0 100 -8.5t71.5 -32t43 -64t14.5 -103.5q0 -81 -26 -125.5t-80 -63.5l120 -253h-121l-109 237h-117v-237h-110v650zM277 327q30 0 52 4.5t35.5 17.5t20 35t6.5 57t-6.5 57.5t-20 35t-35.5 17.5t-52 5h-106v-229h106zM324 715h-120l-57 120h71l46 -62
l47 62h71z" />
    <glyph glyph-name="rcaron" unicode="&#x159;" horiz-adv-x="329" 
d="M299 415q-81 0 -131 -44v-371h-108v500h74l22 -43q32 26 66.5 40t76.5 14v-96zM239 565h-120l-57 120h71l46 -62l47 62h71z" />
    <glyph glyph-name="Sacute" unicode="&#x15a;" horiz-adv-x="554" 
d="M380 473q0 51 -25 72.5t-85 21.5q-57 0 -84.5 -20.5t-27.5 -68.5q0 -25 5 -43t20 -30.5t41 -20.5t68 -14q63 -9 104 -23.5t65 -36.5t33.5 -52.5t9.5 -72.5q0 -53 -15 -90.5t-44.5 -61t-73.5 -34t-101 -10.5q-56 0 -99 10t-72 33.5t-44 61t-15 91.5h110q0 -57 28 -79.5
t92 -22.5q66 0 94 22.5t28 79.5q0 23 -5.5 40t-21 29t-43.5 20.5t-74 15.5q-51 8 -89 21.5t-62.5 36t-36.5 54.5t-12 77q0 85 53.5 133.5t167.5 48.5t167.5 -42.5t53.5 -145.5h-110zM282 835h108l-76 -120h-67z" />
    <glyph glyph-name="sacute" unicode="&#x15b;" horiz-adv-x="496" 
d="M456 142q0 -30 -5.5 -57.5t-26.5 -48.5t-63 -34t-114 -13q-61 0 -101 10.5t-63.5 31.5t-33 51.5t-9.5 70.5h107q0 -20 4 -34t15.5 -23t31 -13t49.5 -4q32 0 52 4t31 12t14.5 19.5t3.5 27.5q0 17 -4 29.5t-17 21t-36 14t-60 8.5q-54 4 -89.5 14.5t-56.5 28t-29.5 43
t-8.5 59.5q0 78 51.5 114.5t146.5 36.5q108 0 154.5 -37.5t46.5 -127.5h-108q0 15 -3 29t-13 24t-28.5 16t-48.5 6q-51 0 -71 -15t-20 -47t19.5 -48.5t77.5 -20.5q62 -5 102 -15t63 -27t31.5 -43t8.5 -63zM255 685h108l-76 -120h-67z" />
    <glyph glyph-name="Scircumflex" unicode="&#x15c;" horiz-adv-x="554" 
d="M380 473q0 51 -25 72.5t-85 21.5q-57 0 -84.5 -20.5t-27.5 -68.5q0 -25 5 -43t20 -30.5t41 -20.5t68 -14q63 -9 104 -23.5t65 -36.5t33.5 -52.5t9.5 -72.5q0 -53 -15 -90.5t-44.5 -61t-73.5 -34t-101 -10.5q-56 0 -99 10t-72 33.5t-44 61t-15 91.5h110q0 -57 28 -79.5
t92 -22.5q66 0 94 22.5t28 79.5q0 23 -5.5 40t-21 29t-43.5 20.5t-74 15.5q-51 8 -89 21.5t-62.5 36t-36.5 54.5t-12 77q0 85 53.5 133.5t167.5 48.5t167.5 -42.5t53.5 -145.5h-110zM395 715h-71l-47 62l-46 -62h-71l57 120h120z" />
    <glyph glyph-name="scircumflex" unicode="&#x15d;" horiz-adv-x="496" 
d="M456 142q0 -30 -5.5 -57.5t-26.5 -48.5t-63 -34t-114 -13q-61 0 -101 10.5t-63.5 31.5t-33 51.5t-9.5 70.5h107q0 -20 4 -34t15.5 -23t31 -13t49.5 -4q32 0 52 4t31 12t14.5 19.5t3.5 27.5q0 17 -4 29.5t-17 21t-36 14t-60 8.5q-54 4 -89.5 14.5t-56.5 28t-29.5 43
t-8.5 59.5q0 78 51.5 114.5t146.5 36.5q108 0 154.5 -37.5t46.5 -127.5h-108q0 15 -3 29t-13 24t-28.5 16t-48.5 6q-51 0 -71 -15t-20 -47t19.5 -48.5t77.5 -20.5q62 -5 102 -15t63 -27t31.5 -43t8.5 -63zM367 565h-71l-47 62l-46 -62h-71l57 120h120z" />
    <glyph glyph-name="Scedilla" unicode="&#x15e;" horiz-adv-x="554" 
d="M380 473q0 51 -25 72.5t-85 21.5q-57 0 -84.5 -20.5t-27.5 -68.5q0 -25 5 -43t20 -30.5t41 -20.5t68 -14q63 -9 104 -23.5t65 -36.5t33.5 -52.5t9.5 -72.5q0 -101 -54 -146t-158 -49l-10 -34q31 -4 51 -19.5t20 -52.5q0 -43 -25.5 -62t-82.5 -19h-63v53h64q24 0 32.5 7
t8.5 21q0 15 -8.5 22t-32.5 7h-28l23 77q-98 5 -149.5 49t-51.5 146h110q0 -57 28 -79.5t92 -22.5q66 0 94 22.5t28 79.5q0 23 -5.5 40t-21 29t-43.5 20.5t-74 15.5q-51 8 -89 21.5t-62.5 36t-36.5 54.5t-12 77q0 85 53.5 133.5t167.5 48.5t167.5 -42.5t53.5 -145.5h-110z
" />
    <glyph glyph-name="scedilla" unicode="&#x15f;" horiz-adv-x="496" 
d="M456 142q0 -29 -5 -55t-23.5 -47t-55.5 -34.5t-100 -15.5l-10 -34q31 -4 51 -19.5t20 -52.5q0 -43 -25.5 -62t-82.5 -19h-63v53h64q24 0 32.5 7t8.5 21q0 15 -8.5 22t-32.5 7h-28l23 77q-53 2 -88 14t-55.5 32.5t-29 49.5t-8.5 67h107q0 -20 4 -34t15.5 -23t31 -13
t49.5 -4q32 0 52 4t31 12t14.5 19.5t3.5 27.5q0 17 -4 29.5t-17 21t-36 14t-60 8.5q-54 4 -89.5 14.5t-56.5 28t-29.5 43t-8.5 59.5q0 78 51.5 114.5t146.5 36.5q108 0 154.5 -37.5t46.5 -127.5h-108q0 15 -3 29t-13 24t-28.5 16t-48.5 6q-51 0 -71 -15t-20 -47t19.5 -48.5
t77.5 -20.5q62 -5 102 -15t63 -27t31.5 -43t8.5 -63z" />
    <glyph glyph-name="Scaron" unicode="&#x160;" horiz-adv-x="554" 
d="M380 473q0 51 -25 72.5t-85 21.5q-57 0 -84.5 -20.5t-27.5 -68.5q0 -25 5 -43t20 -30.5t41 -20.5t68 -14q63 -9 104 -23.5t65 -36.5t33.5 -52.5t9.5 -72.5q0 -53 -15 -90.5t-44.5 -61t-73.5 -34t-101 -10.5q-56 0 -99 10t-72 33.5t-44 61t-15 91.5h110q0 -57 28 -79.5
t92 -22.5q66 0 94 22.5t28 79.5q0 23 -5.5 40t-21 29t-43.5 20.5t-74 15.5q-51 8 -89 21.5t-62.5 36t-36.5 54.5t-12 77q0 85 53.5 133.5t167.5 48.5t167.5 -42.5t53.5 -145.5h-110zM337 715h-120l-57 120h71l46 -62l47 62h71z" />
    <glyph glyph-name="scaron" unicode="&#x161;" horiz-adv-x="496" 
d="M456 142q0 -30 -5.5 -57.5t-26.5 -48.5t-63 -34t-114 -13q-61 0 -101 10.5t-63.5 31.5t-33 51.5t-9.5 70.5h107q0 -20 4 -34t15.5 -23t31 -13t49.5 -4q32 0 52 4t31 12t14.5 19.5t3.5 27.5q0 17 -4 29.5t-17 21t-36 14t-60 8.5q-54 4 -89.5 14.5t-56.5 28t-29.5 43
t-8.5 59.5q0 78 51.5 114.5t146.5 36.5q108 0 154.5 -37.5t46.5 -127.5h-108q0 15 -3 29t-13 24t-28.5 16t-48.5 6q-51 0 -71 -15t-20 -47t19.5 -48.5t77.5 -20.5q62 -5 102 -15t63 -27t31.5 -43t8.5 -63zM310 565h-120l-57 120h71l46 -62l47 62h71z" />
    <glyph glyph-name="Tcaron" unicode="&#x164;" horiz-adv-x="468" 
d="M179 556h-154v94h418v-94h-154v-556h-110v556zM294 715h-120l-57 120h71l46 -62l47 62h71z" />
    <glyph glyph-name="tcaron" unicode="&#x165;" horiz-adv-x="344" 
d="M242 710h87l-26 -170h-61v170zM304 0q-15 -5 -39 -8t-45 -3q-71 0 -100 35t-29 106v280h-71v75l71 15v117l108 23v-140h105v-90h-105v-281q0 -23 10.5 -36.5t36.5 -13.5q20 0 33.5 3t24.5 5v-87z" />
    <glyph glyph-name="Tbar" unicode="&#x166;" horiz-adv-x="458" 
d="M84 351h90v205h-154v94h418v-94h-154v-205h90v-81h-90v-270h-110v270h-90v81z" />
    <glyph glyph-name="tbar" unicode="&#x167;" horiz-adv-x="344" 
d="M35 296h56v114h-71v75l71 15v117l108 23v-140h105v-90h-105v-114h86v-71h-86v-96q0 -23 10.5 -36.5t36.5 -13.5q20 0 33.5 3t24.5 5v-87q-15 -5 -39 -8t-45 -3q-71 0 -100 35t-29 106v95h-56v71z" />
    <glyph glyph-name="Utilde" unicode="&#x168;" horiz-adv-x="570" 
d="M170 650v-448q0 -66 29 -92.5t86 -26.5t86 26.5t29 92.5v448h110v-444q0 -62 -14.5 -104t-43 -67t-70.5 -35.5t-97 -10.5t-97 10.5t-70.5 35.5t-43 67t-14.5 104v444h110zM339 786q34 0 34 37h63q0 -60 -21.5 -85.5t-65.5 -25.5q-21 0 -36 7.5t-27.5 16t-25 16t-28.5 7.5
q-34 0 -34 -37h-64q0 61 22 86t65 25q22 0 37 -7.5t27.5 -16t25 -16t28.5 -7.5z" />
    <glyph glyph-name="utilde" unicode="&#x169;" horiz-adv-x="536" 
d="M402 0l-22 43q-40 -28 -77.5 -41t-87.5 -13q-87 0 -121 42.5t-34 138.5v330h108v-330q0 -54 21 -72.5t64 -18.5q27 0 58 10.5t57 33.5v377h108v-500h-74zM322 636q34 0 34 37h63q0 -60 -21.5 -85.5t-65.5 -25.5q-21 0 -36 7.5t-27.5 16t-25 16t-28.5 7.5q-34 0 -34 -37
h-64q0 61 22 86t65 25q22 0 37 -7.5t27.5 -16t25 -16t28.5 -7.5z" />
    <glyph glyph-name="Umacron" unicode="&#x16a;" horiz-adv-x="570" 
d="M170 650v-448q0 -66 29 -92.5t86 -26.5t86 26.5t29 92.5v448h110v-444q0 -62 -14.5 -104t-43 -67t-70.5 -35.5t-97 -10.5t-97 10.5t-70.5 35.5t-43 67t-14.5 104v444h110zM168 800h236v-71h-236v71z" />
    <glyph glyph-name="umacron" unicode="&#x16b;" horiz-adv-x="536" 
d="M402 0l-22 43q-40 -28 -77.5 -41t-87.5 -13q-87 0 -121 42.5t-34 138.5v330h108v-330q0 -54 21 -72.5t64 -18.5q27 0 58 10.5t57 33.5v377h108v-500h-74zM151 650h236v-71h-236v71z" />
    <glyph glyph-name="Ubreve" unicode="&#x16c;" horiz-adv-x="570" 
d="M170 650v-448q0 -66 29 -92.5t86 -26.5t86 26.5t29 92.5v448h110v-444q0 -62 -14.5 -104t-43 -67t-70.5 -35.5t-97 -10.5t-97 10.5t-70.5 35.5t-43 67t-14.5 104v444h110zM285 707q-61 0 -91.5 33.5t-30.5 96.5h66q0 -62 56 -62q57 0 57 62h66q0 -63 -30.5 -96.5
t-92.5 -33.5z" />
    <glyph glyph-name="ubreve" unicode="&#x16d;" horiz-adv-x="536" 
d="M402 0l-22 43q-40 -28 -77.5 -41t-87.5 -13q-87 0 -121 42.5t-34 138.5v330h108v-330q0 -54 21 -72.5t64 -18.5q27 0 58 10.5t57 33.5v377h108v-500h-74zM270 557q-61 0 -91.5 33.5t-30.5 96.5h66q0 -62 56 -62q57 0 57 62h66q0 -63 -30.5 -96.5t-92.5 -33.5z" />
    <glyph glyph-name="Uring" unicode="&#x16e;" horiz-adv-x="570" 
d="M170 650v-448q0 -66 29 -92.5t86 -26.5t86 26.5t29 92.5v448h110v-444q0 -62 -14.5 -104t-43 -67t-70.5 -35.5t-97 -10.5t-97 10.5t-70.5 35.5t-43 67t-14.5 104v444h110zM285 885q50 0 77.5 -22t27.5 -67t-27.5 -67.5t-77.5 -22.5q-49 0 -76.5 22.5t-27.5 67.5t27.5 67
t76.5 22zM285 757q43 0 43 39q0 38 -43 38t-43 -38q0 -39 43 -39z" />
    <glyph glyph-name="uring" unicode="&#x16f;" horiz-adv-x="536" 
d="M402 0l-22 43q-40 -28 -77.5 -41t-87.5 -13q-87 0 -121 42.5t-34 138.5v330h108v-330q0 -54 21 -72.5t64 -18.5q27 0 58 10.5t57 33.5v377h108v-500h-74zM268 735q50 0 77.5 -22t27.5 -67t-27.5 -67.5t-77.5 -22.5q-49 0 -76.5 22.5t-27.5 67.5t27.5 67t76.5 22zM268 607
q43 0 43 39q0 38 -43 38t-43 -38q0 -39 43 -39z" />
    <glyph glyph-name="Uhungarumlaut" unicode="&#x170;" horiz-adv-x="570" 
d="M170 650v-448q0 -66 29 -92.5t86 -26.5t86 26.5t29 92.5v448h110v-444q0 -62 -14.5 -104t-43 -67t-70.5 -35.5t-97 -10.5t-97 10.5t-70.5 35.5t-43 67t-14.5 104v444h110zM205 835h98l-51 -120h-63zM357 835h101l-76 -120h-67z" />
    <glyph glyph-name="uhungarumlaut" unicode="&#x171;" horiz-adv-x="536" 
d="M402 0l-22 43q-40 -28 -77.5 -41t-87.5 -13q-87 0 -121 42.5t-34 138.5v330h108v-330q0 -54 21 -72.5t64 -18.5q27 0 58 10.5t57 33.5v377h108v-500h-74zM189 685h98l-51 -120h-63zM341 685h101l-76 -120h-67z" />
    <glyph glyph-name="Uogonek" unicode="&#x172;" horiz-adv-x="570" 
d="M380 -171h-50q-38 0 -59.5 17t-21.5 53q0 24 12 47.5t35 42.5h-11q-55 0 -97 10.5t-70.5 35.5t-43 67t-14.5 104v444h110v-448q0 -66 29 -92.5t86 -26.5t86 26.5t29 92.5v448h110v-444q0 -95 -34 -143.5t-99 -63.5q-23 -17 -35 -35.5t-12 -39.5q0 -16 10 -23t26 -7h14
v-65z" />
    <glyph glyph-name="uogonek" unicode="&#x173;" horiz-adv-x="536" 
d="M476 -171h-50q-38 0 -59.5 17t-21.5 53q0 27 14.5 52.5t43.5 45.5l-23 46q-40 -28 -77.5 -41t-87.5 -13q-87 0 -121 42.5t-34 138.5v330h108v-330q0 -54 21 -72.5t64 -18.5q27 0 58 10.5t57 33.5v377h108v-500q-50 -36 -50 -76q0 -16 10 -23t26 -7h14v-65z" />
    <glyph glyph-name="Wcircumflex" unicode="&#x174;" horiz-adv-x="818" 
d="M409 540l-95 -540h-151l-133 650h112l97 -540h2l97 540h142l97 -540h2l97 540h112l-133 -650h-151zM527 715h-71l-47 62l-46 -62h-71l57 120h120z" />
    <glyph glyph-name="wcircumflex" unicode="&#x175;" horiz-adv-x="748" 
d="M606 500h112l-125 -500h-130l-89 394l-89 -394h-130l-125 500h112l79 -397h1l91 397h122l91 -398h1zM492 565h-71l-47 62l-46 -62h-71l57 120h120z" />
    <glyph glyph-name="Ycircumflex" unicode="&#x176;" horiz-adv-x="514" 
d="M202 246l-187 404h120l121 -295h2l121 295h120l-187 -404v-246h-110v246zM375 715h-71l-47 62l-46 -62h-71l57 120h120z" />
    <glyph glyph-name="ycircumflex" unicode="&#x177;" horiz-adv-x="504" 
d="M20 500h116l116 -372h2l114 372h116l-199 -562q-12 -33 -26 -55.5t-35 -36.5t-49.5 -20t-68.5 -6q-14 0 -31.5 2.5t-29.5 7.5v90q14 -5 30 -7.5t31 -2.5q18 0 30.5 3t22 10.5t16.5 19.5t14 29l11 29zM370 565h-71l-47 62l-46 -62h-71l57 120h120z" />
    <glyph glyph-name="Ydieresis" unicode="&#x178;" horiz-adv-x="514" 
d="M202 246l-187 404h120l121 -295h2l121 295h120l-187 -404v-246h-110v246zM134 811h91v-91h-91v91zM289 811h92v-91h-92v91z" />
    <glyph glyph-name="Zacute" unicode="&#x179;" horiz-adv-x="513" 
d="M60 650h403v-85l-285 -471h295v-94h-423v84l284 472h-274v94zM268 835h108l-76 -120h-67z" />
    <glyph glyph-name="zacute" unicode="&#x17a;" horiz-adv-x="478" 
d="M50 500h382v-75l-255 -335h266v-90h-403v74l255 336h-245v90zM242 685h108l-76 -120h-67z" />
    <glyph glyph-name="Zdotaccent" unicode="&#x17b;" horiz-adv-x="513" 
d="M60 650h403v-85l-285 -471h295v-94h-423v84l284 472h-274v94zM223 811h91v-91h-91v91z" />
    <glyph glyph-name="zdotaccent" unicode="&#x17c;" horiz-adv-x="478" 
d="M50 500h382v-75l-255 -335h266v-90h-403v74l255 336h-245v90zM191 661h91v-91h-91v91z" />
    <glyph glyph-name="Zcaron" unicode="&#x17d;" horiz-adv-x="513" 
d="M60 650h403v-85l-285 -471h295v-94h-423v84l284 472h-274v94zM317 715h-120l-57 120h71l46 -62l47 62h71z" />
    <glyph glyph-name="zcaron" unicode="&#x17e;" horiz-adv-x="478" 
d="M50 500h382v-75l-255 -335h266v-90h-403v74l255 336h-245v90zM304 565h-120l-57 120h71l46 -62l47 62h71z" />
    <glyph glyph-name="florin" unicode="&#x192;" horiz-adv-x="350" 
d="M218 -39q0 -73 -31.5 -107t-97.5 -34q-26 0 -47.5 3t-36.5 8v90q11 -2 24.5 -5t33.5 -3q26 0 36.5 13t10.5 36v448h-71v75l71 15v45q0 73 31.5 107t97.5 34q26 0 47.5 -3t36.5 -8v-90q-11 2 -24.5 5t-33.5 3q-26 0 -36.5 -13t-10.5 -36v-44h85v-90h-85v-449z" />
    <glyph glyph-name="Scommaaccent" unicode="&#x218;" horiz-adv-x="554" 
d="M380 473q0 51 -25 72.5t-85 21.5q-57 0 -84.5 -20.5t-27.5 -68.5q0 -25 5 -43t20 -30.5t41 -20.5t68 -14q63 -9 104 -23.5t65 -36.5t33.5 -52.5t9.5 -72.5q0 -53 -15 -90.5t-44.5 -61t-73.5 -34t-101 -10.5q-56 0 -99 10t-72 33.5t-44 61t-15 91.5h110q0 -57 28 -79.5
t92 -22.5q66 0 94 22.5t28 79.5q0 23 -5.5 40t-21 29t-43.5 20.5t-74 15.5q-51 8 -89 21.5t-62.5 36t-36.5 54.5t-12 77q0 85 53.5 133.5t167.5 48.5t167.5 -42.5t53.5 -145.5h-110zM220 -60h109l-66 -130h-75z" />
    <glyph glyph-name="scommaaccent" unicode="&#x219;" horiz-adv-x="496" 
d="M456 142q0 -30 -5.5 -57.5t-26.5 -48.5t-63 -34t-114 -13q-61 0 -101 10.5t-63.5 31.5t-33 51.5t-9.5 70.5h107q0 -20 4 -34t15.5 -23t31 -13t49.5 -4q32 0 52 4t31 12t14.5 19.5t3.5 27.5q0 17 -4 29.5t-17 21t-36 14t-60 8.5q-54 4 -89.5 14.5t-56.5 28t-29.5 43
t-8.5 59.5q0 78 51.5 114.5t146.5 36.5q108 0 154.5 -37.5t46.5 -127.5h-108q0 15 -3 29t-13 24t-28.5 16t-48.5 6q-51 0 -71 -15t-20 -47t19.5 -48.5t77.5 -20.5q62 -5 102 -15t63 -27t31.5 -43t8.5 -63zM198 -60h109l-66 -130h-75z" />
    <glyph glyph-name="Tcommaaccent" unicode="&#x21a;" horiz-adv-x="468" 
d="M179 556h-154v94h418v-94h-154v-556h-110v556zM179 -60h109l-66 -130h-75z" />
    <glyph glyph-name="tcommaaccent" unicode="&#x21b;" horiz-adv-x="344" 
d="M304 0q-15 -5 -39 -8t-45 -3q-71 0 -100 35t-29 106v280h-71v75l71 15v117l108 23v-140h105v-90h-105v-281q0 -23 10.5 -36.5t36.5 -13.5q20 0 33.5 3t24.5 5v-87zM142 -60h109l-66 -130h-75z" />
    <glyph glyph-name="circumflex" unicode="&#x2c6;" horiz-adv-x="315" 
d="M276 565h-71l-47 62l-46 -62h-71l57 120h120z" />
    <glyph glyph-name="caron" unicode="&#x2c7;" horiz-adv-x="337" 
d="M230 565h-120l-57 120h71l46 -62l47 62h71z" />
    <glyph glyph-name="breve" unicode="&#x2d8;" horiz-adv-x="324" 
d="M162 557q-61 0 -91.5 33.5t-30.5 96.5h66q0 -62 56 -62q57 0 57 62h66q0 -63 -30.5 -96.5t-92.5 -33.5z" />
    <glyph glyph-name="dotaccent" unicode="&#x2d9;" horiz-adv-x="208" 
d="M58 661h91v-91h-91v91z" />
    <glyph glyph-name="ring" unicode="&#x2da;" horiz-adv-x="300" 
d="M150 735q50 0 77.5 -22t27.5 -67t-27.5 -67.5t-77.5 -22.5q-49 0 -76.5 22.5t-27.5 67.5t27.5 67t76.5 22zM150 607q43 0 43 39q0 38 -43 38t-43 -38q0 -39 43 -39z" />
    <glyph glyph-name="ogonek" unicode="&#x2db;" horiz-adv-x="203" 
d="M163 -171h-50q-38 0 -59.5 17t-21.5 53q0 28 16 54.5t46 46.5h69q-50 -36 -50 -76q0 -16 10 -23t26 -7h14v-65z" />
    <glyph glyph-name="tilde" unicode="&#x2dc;" horiz-adv-x="400" 
d="M254 636q34 0 34 37h63q0 -60 -21.5 -85.5t-65.5 -25.5q-21 0 -36 7.5t-27.5 16t-25 16t-28.5 7.5q-34 0 -34 -37h-64q0 61 22 86t65 25q22 0 37 -7.5t27.5 -16t25 -16t28.5 -7.5z" />
    <glyph glyph-name="hungarumlaut" unicode="&#x2dd;" horiz-adv-x="384" 
d="M75 685h98l-51 -120h-63zM227 685h101l-76 -120h-67z" />
    <glyph glyph-name="pi" unicode="&#x3c0;" horiz-adv-x="602" 
d="M130 410h-80v90h502v-90h-80v-254q0 -36 15.5 -51t50.5 -15h14v-90h-15q-93 0 -133 35t-40 114v261h-126v-410h-108v410z" />
    <glyph glyph-name="Bdotaccent" unicode="&#x1e02;" horiz-adv-x="550" 
d="M61 650h219q113 0 162 -40.5t49 -127.5q0 -55 -23.5 -92t-61.5 -53q55 -18 80 -57t25 -100q0 -90 -50.5 -135t-164.5 -45h-235v650zM292 94q54 0 79.5 21t25.5 74q0 55 -28.5 75.5t-76.5 20.5h-121v-191h121zM171 556v-181h117q48 0 70.5 22t22.5 69q0 48 -24 69t-75 21
h-111zM215 811h91v-91h-91v91z" />
    <glyph glyph-name="bdotaccent" unicode="&#x1e03;" horiz-adv-x="538" 
d="M168 670v-205q32 22 66.5 34t72.5 12q42 0 76.5 -8.5t58.5 -32.5t37.5 -66.5t13.5 -110.5v-86q0 -68 -13.5 -110.5t-37.5 -66.5t-58.5 -32.5t-76.5 -8.5q-43 0 -80 14t-71 40l-22 -43h-74v670h108zM168 123q26 -23 57.5 -33.5t64.5 -10.5q47 0 71 29t24 104v76
q0 39 -6 64.5t-18 40.5t-30 21.5t-41 6.5q-33 0 -64.5 -10.5t-57.5 -33.5v-254zM259 661h91v-91h-91v91z" />
    <glyph glyph-name="Ddotaccent" unicode="&#x1e0a;" horiz-adv-x="562" 
d="M171 556v-462h97q37 0 63 7t42 22.5t23 40.5t7 61v205q0 43 -9 68.5t-26 38t-42 16t-58 3.5h-97zM61 0v650h209q60 0 105 -9.5t76 -35t46.5 -70.5t15.5 -116v-187q0 -71 -15.5 -116t-46.5 -71t-76 -35.5t-105 -9.5h-209zM217 811h91v-91h-91v91z" />
    <glyph glyph-name="ddotaccent" unicode="&#x1e0b;" horiz-adv-x="538" 
d="M478 670v-670h-74l-22 43q-34 -26 -71 -40t-80 -14q-42 0 -76.5 8.5t-58.5 32.5t-37.5 66.5t-13.5 110.5v86q0 68 13.5 110.5t37.5 66.5t58.5 32.5t76.5 8.5q38 0 72.5 -12t66.5 -34v205h108zM370 377q-26 23 -57.5 33.5t-64.5 10.5q-23 0 -41 -6.5t-30 -21.5t-18 -40.5
t-6 -64.5v-76q0 -75 24 -104t71 -29q33 0 64.5 10.5t57.5 33.5v254zM190 661h91v-91h-91v91z" />
    <glyph glyph-name="Fdotaccent" unicode="&#x1e1e;" horiz-adv-x="466" 
d="M61 0v650h366v-94h-256v-181h221v-90h-221v-285h-110zM208 811h91v-91h-91v91z" />
    <glyph glyph-name="fdotaccent" unicode="&#x1e1f;" horiz-adv-x="334" 
d="M309 588q-11 2 -24.5 5t-33.5 3q-26 0 -36.5 -13t-10.5 -36v-47h85v-90h-85v-410h-108v410h-71v75l71 15v45q0 73 31.5 107t97.5 34q26 0 47.5 -3t36.5 -8v-87zM163 826h91v-91h-91v91z" />
    <glyph glyph-name="Mdotaccent" unicode="&#x1e40;" horiz-adv-x="712" 
d="M399 0h-84l-153 531l6 -178v-353h-108v650h156l140 -493h2l140 493h156v-650h-108v353l6 178zM312 811h91v-91h-91v91z" />
    <glyph glyph-name="mdotaccent" unicode="&#x1e41;" horiz-adv-x="783" 
d="M156 457q36 26 70 40t76 14q48 0 76 -13.5t49 -40.5q35 23 72 38.5t81 15.5q43 0 71 -10.5t44 -32t22 -56t6 -82.5v-330h-108v330q0 54 -15.5 72.5t-55.5 18.5q-23 0 -49 -11.5t-50 -32.5v-377h-108v330q0 54 -15.5 72.5t-55.5 18.5q-20 0 -47.5 -11.5t-50.5 -32.5v-377
h-108v500h74zM347 661h91v-91h-91v91z" />
    <glyph glyph-name="Pdotaccent" unicode="&#x1e56;" horiz-adv-x="548" 
d="M283 326q30 0 51.5 5t35 17.5t19.5 35t6 57.5t-6 57.5t-19.5 35t-35 17.5t-51.5 5h-108v-230h108zM65 650h216q57 0 100 -8.5t71 -32t42 -64t14 -103.5q0 -59 -13.5 -98.5t-41.5 -63.5t-70 -34t-100 -10h-108v-236h-110v650zM227 811h91v-91h-91v91z" />
    <glyph glyph-name="pdotaccent" unicode="&#x1e57;" horiz-adv-x="538" 
d="M60 -170v670h74l22 -43q34 26 71.5 40t79.5 14t76.5 -8.5t58.5 -32.5t37.5 -66.5t13.5 -110.5v-86q0 -68 -13.5 -110.5t-37.5 -66.5t-58.5 -32.5t-76.5 -8.5q-38 0 -72.5 12t-66.5 34v-205h-108zM168 123q26 -23 57.5 -33.5t64.5 -10.5q23 0 41 6.5t30 21.5t18 40.5
t6 64.5v76q0 75 -24 104t-71 29q-33 0 -64.5 -10.5t-57.5 -33.5v-254zM229 661h91v-91h-91v91z" />
    <glyph glyph-name="Sdotaccent" unicode="&#x1e60;" horiz-adv-x="554" 
d="M380 473q0 51 -25 72.5t-85 21.5q-57 0 -84.5 -20.5t-27.5 -68.5q0 -25 5 -43t20 -30.5t41 -20.5t68 -14q63 -9 104 -23.5t65 -36.5t33.5 -52.5t9.5 -72.5q0 -53 -15 -90.5t-44.5 -61t-73.5 -34t-101 -10.5q-56 0 -99 10t-72 33.5t-44 61t-15 91.5h110q0 -57 28 -79.5
t92 -22.5q66 0 94 22.5t28 79.5q0 23 -5.5 40t-21 29t-43.5 20.5t-74 15.5q-51 8 -89 21.5t-62.5 36t-36.5 54.5t-12 77q0 85 53.5 133.5t167.5 48.5t167.5 -42.5t53.5 -145.5h-110zM233 811h91v-91h-91v91z" />
    <glyph glyph-name="sdotaccent" unicode="&#x1e61;" horiz-adv-x="496" 
d="M456 142q0 -30 -5.5 -57.5t-26.5 -48.5t-63 -34t-114 -13q-61 0 -101 10.5t-63.5 31.5t-33 51.5t-9.5 70.5h107q0 -20 4 -34t15.5 -23t31 -13t49.5 -4q32 0 52 4t31 12t14.5 19.5t3.5 27.5q0 17 -4 29.5t-17 21t-36 14t-60 8.5q-54 4 -89.5 14.5t-56.5 28t-29.5 43
t-8.5 59.5q0 78 51.5 114.5t146.5 36.5q108 0 154.5 -37.5t46.5 -127.5h-108q0 15 -3 29t-13 24t-28.5 16t-48.5 6q-51 0 -71 -15t-20 -47t19.5 -48.5t77.5 -20.5q62 -5 102 -15t63 -27t31.5 -43t8.5 -63zM206 661h91v-91h-91v91z" />
    <glyph glyph-name="Tdotaccent" unicode="&#x1e6a;" horiz-adv-x="468" 
d="M179 556h-154v94h418v-94h-154v-556h-110v556zM190 811h91v-91h-91v91z" />
    <glyph glyph-name="tdotaccent" unicode="&#x1e6b;" horiz-adv-x="344" 
d="M304 0q-15 -5 -39 -8t-45 -3q-71 0 -100 35t-29 106v280h-71v75l71 15v117l108 23v-140h105v-90h-105v-281q0 -23 10.5 -36.5t36.5 -13.5q20 0 33.5 3t24.5 5v-87zM102 779h91v-91h-91v91z" />
    <glyph glyph-name="Wgrave" unicode="&#x1e80;" horiz-adv-x="818" 
d="M409 540l-95 -540h-151l-133 650h112l97 -540h2l97 540h142l97 -540h2l97 540h112l-133 -650h-151zM447 715h-67l-76 120h108z" />
    <glyph glyph-name="wgrave" unicode="&#x1e81;" horiz-adv-x="748" 
d="M606 500h112l-125 -500h-130l-89 394l-89 -394h-130l-125 500h112l79 -397h1l91 397h122l91 -398h1zM408 565h-67l-76 120h108z" />
    <glyph glyph-name="Wacute" unicode="&#x1e82;" horiz-adv-x="818" 
d="M409 540l-95 -540h-151l-133 650h112l97 -540h2l97 540h142l97 -540h2l97 540h112l-133 -650h-151zM415 835h108l-76 -120h-67z" />
    <glyph glyph-name="wacute" unicode="&#x1e83;" horiz-adv-x="748" 
d="M606 500h112l-125 -500h-130l-89 394l-89 -394h-130l-125 500h112l79 -397h1l91 397h122l91 -398h1zM380 685h108l-76 -120h-67z" />
    <glyph glyph-name="Wdieresis" unicode="&#x1e84;" horiz-adv-x="818" 
d="M409 540l-95 -540h-151l-133 650h112l97 -540h2l97 540h142l97 -540h2l97 540h112l-133 -650h-151zM286 811h91v-91h-91v91zM441 811h92v-91h-92v91z" />
    <glyph glyph-name="wdieresis" unicode="&#x1e85;" horiz-adv-x="748" 
d="M606 500h112l-125 -500h-130l-89 394l-89 -394h-130l-125 500h112l79 -397h1l91 397h122l91 -398h1zM251 661h91v-91h-91v91zM406 661h92v-91h-92v91z" />
    <glyph glyph-name="Ygrave" unicode="&#x1ef2;" horiz-adv-x="514" 
d="M202 246l-187 404h120l121 -295h2l121 295h120l-187 -404v-246h-110v246zM289 715h-67l-76 120h108z" />
    <glyph glyph-name="ygrave" unicode="&#x1ef3;" horiz-adv-x="504" 
d="M20 500h116l116 -372h2l114 372h116l-199 -562q-12 -33 -26 -55.5t-35 -36.5t-49.5 -20t-68.5 -6q-14 0 -31.5 2.5t-29.5 7.5v90q14 -5 30 -7.5t31 -2.5q18 0 30.5 3t22 10.5t16.5 19.5t14 29l11 29zM289 565h-67l-76 120h108z" />
    <glyph glyph-name="endash" unicode="&#x2013;" horiz-adv-x="475" 
d="M50 324h375v-90h-375v90z" />
    <glyph glyph-name="emdash" unicode="&#x2014;" horiz-adv-x="650" 
d="M50 324h550v-90h-550v90z" />
    <glyph glyph-name="quoteleft" unicode="&#x2018;" horiz-adv-x="182" 
d="M142 400h-55l-57 250h112v-250z" />
    <glyph glyph-name="quoteright" unicode="&#x2019;" horiz-adv-x="182" 
d="M40 650h112l-57 -250h-55v250z" />
    <glyph glyph-name="quotesinglbase" unicode="&#x201a;" horiz-adv-x="202" 
d="M50 125h112l-57 -250h-55v250z" />
    <glyph glyph-name="quotedblleft" unicode="&#x201c;" horiz-adv-x="344" 
d="M152 400h-55l-57 250h112v-250zM294 400h-55l-57 250h112v-250z" />
    <glyph glyph-name="quotedblright" unicode="&#x201d;" horiz-adv-x="344" 
d="M192 650h112l-57 -250h-55v250zM50 650h112l-57 -250h-55v250z" />
    <glyph glyph-name="quotedblbase" unicode="&#x201e;" horiz-adv-x="344" 
d="M192 125h112l-57 -250h-55v250zM50 125h112l-57 -250h-55v250z" />
    <glyph glyph-name="dagger" unicode="&#x2020;" horiz-adv-x="336" 
d="M138 567v103h60v-103h98v-54h-98v-253h-60v253h-98v54h98z" />
    <glyph glyph-name="daggerdbl" unicode="&#x2021;" horiz-adv-x="336" 
d="M138 567v103h60v-103h98v-54h-98v-96h98v-54h-98v-103h-60v103h-98v54h98v96h-98v54h98z" />
    <glyph glyph-name="bullet" unicode="&#x2022;" horiz-adv-x="436" 
d="M391 304q0 -51 -10 -84t-31.5 -52t-54 -26t-77.5 -7t-77.5 7t-54 26t-31.5 52t-10 84v42q0 51 10 84t31.5 52t54 26t77.5 7t77.5 -7t54 -26t31.5 -52t10 -84v-42z" />
    <glyph glyph-name="ellipsis" unicode="&#x2026;" horiz-adv-x="620" 
d="M50 120h120v-120h-120v120zM250 120h120v-120h-120v120zM450 120h120v-120h-120v120z" />
    <glyph glyph-name="perthousand" unicode="&#x2030;" horiz-adv-x="841" 
d="M801 133q0 -41 -8 -69t-25 -44.5t-42.5 -23.5t-59.5 -7q-35 0 -59.5 8t-39.5 27q-16 -19 -40 -27t-59 -8t-60.5 7t-42 23.5t-24.5 44.5t-8 69q0 82 32.5 113.5t102.5 31.5q69 0 99 -37q15 20 39.5 28.5t59.5 8.5q69 0 102 -31.5t33 -113.5zM310 516q0 -41 -8 -69t-25 -45
t-42.5 -24t-59.5 -7q-35 0 -60.5 7t-42 24t-24.5 45t-8 69q0 82 32.5 113.5t102.5 31.5q69 0 102 -31.5t33 -113.5zM155 0h-76l408 650h77zM112 524q0 -29 3 -47t10 -28.5t19.5 -14.5t30.5 -4q34 0 48.5 17t14.5 69t-14.5 69t-48.5 17t-48.5 -16t-14.5 -62zM405 141
q0 -29 3 -47t10 -28.5t19.5 -14.5t30.5 -4q34 0 48.5 17t14.5 69t-14.5 69t-48.5 17t-48.5 -16t-14.5 -62zM603 141q0 -29 3 -47t10 -28.5t19.5 -14.5t30.5 -4q34 0 48.5 17t14.5 69t-14.5 69t-48.5 17t-48.5 -16t-14.5 -62z" />
    <glyph glyph-name="guilsinglleft" unicode="&#x2039;" horiz-adv-x="343" 
d="M50 250l146 190h97l-147 -190l147 -190h-97z" />
    <glyph glyph-name="guilsinglright" unicode="&#x203a;" horiz-adv-x="343" 
d="M147 60h-97l147 190l-147 190h97l146 -190z" />
    <glyph glyph-name="Euro" unicode="&#x20ac;" horiz-adv-x="599" 
d="M209 355v-61h151l-8 -54h-143v-29q0 -73 28 -100.5t90 -27.5q60 0 86 25.5t26 88.5h110q0 -110 -53 -159t-169 -49q-59 0 -102 13t-71 40.5t-41.5 72t-13.5 107.5v18h-59v54h59v61h-59v54h59v19q0 126 55 179.5t173 53.5q116 0 169 -49t53 -159h-110q0 60 -26 87t-86 27
q-62 0 -90 -27.5t-28 -100.5v-30h171l-9 -54h-162z" />
    <glyph glyph-name="trademark" unicode="&#x2122;" horiz-adv-x="559" 
d="M103 608h-65v42h176v-42h-65v-218h-46v218zM378 455l63 195h68v-260h-46v202l-66 -202h-38l-66 202v-202h-46v260h68z" />
    <glyph glyph-name="onethird" unicode="&#x2153;" horiz-adv-x="636" 
d="M116 349v250h-51v32l73 19h36v-301h-58zM516 89q0 23 -12.5 31t-28.5 8h-37v49h35q37 0 37 38q0 19 -10 29.5t-35 10.5q-26 0 -36 -12.5t-10 -37.5h-59q0 48 25 74t80 26q57 0 80.5 -24t23.5 -66q0 -20 -11 -35.5t-28 -24.5q23 -8 34.5 -24t11.5 -44q0 -44 -23 -68
t-87 -24q-60 0 -83.5 25.5t-23.5 74.5h58q0 -25 11 -37.5t38 -12.5q28 0 39 10.5t11 33.5zM484 650h60l-421 -650h-60z" />
    <glyph glyph-name="twothirds" unicode="&#x2154;" horiz-adv-x="660" 
d="M540 89q0 23 -12.5 31t-28.5 8h-37v49h35q37 0 37 38q0 19 -10 29.5t-35 10.5q-26 0 -36 -12.5t-10 -37.5h-59q0 48 25 74t80 26q57 0 80.5 -24t23.5 -66q0 -20 -11 -35.5t-28 -24.5q23 -8 34.5 -24t11.5 -44q0 -44 -23 -68t-87 -24q-60 0 -83.5 25.5t-23.5 74.5h58
q0 -25 11 -37.5t38 -12.5q28 0 39 10.5t11 33.5zM60 554q0 48 24.5 74t78.5 26q60 0 81.5 -25.5t21.5 -68.5q0 -26 -10.5 -43.5t-26.5 -30t-34.5 -21.5t-35 -18t-27.5 -20.5t-12 -27.5h150v-50h-210v32q0 29 11 49t27 34t35.5 24t35.5 20t27 21.5t11 28.5q0 23 -9 34.5
t-35 11.5q-25 0 -34.5 -12.5t-9.5 -37.5h-59zM504 650h60l-421 -650h-60z" />
    <glyph glyph-name="oneeighth" unicode="&#x215b;" horiz-adv-x="637" 
d="M116 349v250h-51v32l73 19h36v-301h-58zM463 -4q-58 0 -85.5 19.5t-27.5 67.5q0 29 12.5 46t32.5 26q-17 10 -27 26.5t-10 39.5q0 48 26.5 66.5t78.5 18.5q51 0 77.5 -18.5t26.5 -66.5q0 -24 -10 -40t-27 -26q20 -9 32.5 -26t12.5 -46q0 -48 -27.5 -67.5t-84.5 -19.5z
M463 256q-24 0 -35.5 -8t-11.5 -32q0 -26 12 -33.5t35 -7.5t34.5 8t11.5 33q0 24 -11.5 32t-34.5 8zM463 46q52 0 52 41q0 23 -12 33t-40 10q-29 0 -41 -10t-12 -33q0 -41 53 -41zM484 650h60l-421 -650h-60z" />
    <glyph glyph-name="threeeighths" unicode="&#x215c;" horiz-adv-x="670" 
d="M496 -4q-58 0 -85.5 19.5t-27.5 67.5q0 29 12.5 46t32.5 26q-17 10 -27 26.5t-10 39.5q0 48 26.5 66.5t78.5 18.5q51 0 77.5 -18.5t26.5 -66.5q0 -24 -10 -40t-27 -26q20 -9 32.5 -26t12.5 -46q0 -48 -27.5 -67.5t-84.5 -19.5zM496 256q-24 0 -35.5 -8t-11.5 -32
q0 -26 12 -33.5t35 -7.5t34.5 8t11.5 33q0 24 -11.5 32t-34.5 8zM496 46q52 0 52 41q0 23 -12 33t-40 10q-29 0 -41 -10t-12 -33q0 -41 53 -41zM217 438q0 23 -12.5 31t-28.5 8h-37v49h35q37 0 37 38q0 19 -10 29.5t-35 10.5q-26 0 -36 -12.5t-10 -37.5h-59q0 48 25 74
t80 26q57 0 80.5 -24t23.5 -66q0 -20 -11 -35.5t-28 -24.5q23 -8 34.5 -24t11.5 -44q0 -44 -23 -68t-87 -24q-60 0 -83.5 25.5t-23.5 74.5h58q0 -25 11 -37.5t38 -12.5q28 0 39 10.5t11 33.5zM517 650h60l-421 -650h-60z" />
    <glyph glyph-name="fiveeighths" unicode="&#x215d;" horiz-adv-x="665" 
d="M491 -4q-58 0 -85.5 19.5t-27.5 67.5q0 29 12.5 46t32.5 26q-17 10 -27 26.5t-10 39.5q0 48 26.5 66.5t78.5 18.5q51 0 77.5 -18.5t26.5 -66.5q0 -24 -10 -40t-27 -26q20 -9 32.5 -26t12.5 -46q0 -48 -27.5 -67.5t-84.5 -19.5zM491 256q-24 0 -35.5 -8t-11.5 -32
q0 -26 12 -33.5t35 -7.5t34.5 8t11.5 33q0 24 -11.5 32t-34.5 8zM491 46q52 0 52 41q0 23 -12 33t-40 10q-29 0 -41 -10t-12 -33q0 -41 53 -41zM127 532q12 7 26.5 11t28.5 4q43 0 68 -20.5t25 -76.5q0 -52 -24 -79t-84 -27q-57 0 -82 25.5t-25 74.5h58q0 -50 49 -50
q26 0 38 13t12 43q0 29 -12 41.5t-36 12.5q-11 0 -23.5 -6t-20.5 -12h-58l15 164h179v-51h-129zM512 650h60l-421 -650h-60z" />
    <glyph glyph-name="seveneighths" unicode="&#x215e;" horiz-adv-x="634" 
d="M460 -4q-58 0 -85.5 19.5t-27.5 67.5q0 29 12.5 46t32.5 26q-17 10 -27 26.5t-10 39.5q0 48 26.5 66.5t78.5 18.5q51 0 77.5 -18.5t26.5 -66.5q0 -24 -10 -40t-27 -26q20 -9 32.5 -26t12.5 -46q0 -48 -27.5 -67.5t-84.5 -19.5zM460 256q-24 0 -35.5 -8t-11.5 -32
q0 -26 12 -33.5t35 -7.5t34.5 8t11.5 33q0 24 -11.5 32t-34.5 8zM460 46q52 0 52 41q0 23 -12 33t-40 10q-29 0 -41 -10t-12 -33q0 -41 53 -41zM98 349l98 250h-135v51h199v-41l-101 -260h-61zM481 650h60l-421 -650h-60z" />
    <glyph glyph-name="partialdiff" unicode="&#x2202;" horiz-adv-x="523" 
d="M473 220q0 -68 -13 -112.5t-40 -71t-68 -37t-96 -10.5q-56 0 -96.5 10.5t-67 37t-39.5 71t-13 112.5v52q0 66 11.5 110.5t36.5 71.5t64 38t93 11q33 0 58 -7.5t45 -22.5q-20 63 -56 115.5t-71 92.5h123q34 -38 58.5 -80t40.5 -90t23 -103.5t7 -122.5v-65zM366 278
q0 41 -5.5 68t-18.5 42.5t-34 21.5t-52 6t-52 -6t-34 -21.5t-18.5 -42.5t-5.5 -68v-65q0 -41 5.5 -68t18.5 -42.5t34 -21.5t52 -6t52 6t34 21.5t18.5 42.5t5.5 68v65z" />
    <glyph glyph-name="minus" unicode="&#x2212;" horiz-adv-x="510" 
d="M50 235v80h410v-80h-410z" />
    <glyph glyph-name="integral" unicode="&#x222b;" horiz-adv-x="400" 
d="M231 -4q0 -34 -7.5 -56.5t-23 -36t-39.5 -19t-58 -5.5h-55v60h55q26 0 37 12t11 38v584q0 66 30 91.5t98 25.5h55v-60h-55q-26 0 -37 -13t-11 -37v-584z" />
    <glyph glyph-name="approxequal" unicode="&#x2248;" horiz-adv-x="509" 
d="M349 303q-32 0 -57 11t-46.5 24t-40.5 24t-39 11q-18 0 -28.5 -9.5t-10.5 -31.5h-77q1 35 9 57.5t22.5 36t34 18.5t43.5 5q31 0 55.5 -11t46 -24t41.5 -24t41 -11q19 0 29 9t10 32h77q-1 -35 -9.5 -57.5t-22.5 -36t-34 -18.5t-44 -5zM349 102q-32 0 -57 11t-46.5 24
t-40.5 24t-39 11q-18 0 -28.5 -9.5t-10.5 -31.5h-77q1 35 9 57.5t22.5 36t34 18.5t43.5 5q31 0 55.5 -11t46 -24t41.5 -24t41 -11q19 0 29 9t10 32h77q-1 -35 -9.5 -57.5t-22.5 -36t-34 -18.5t-44 -5z" />
    <glyph glyph-name="notequal" unicode="&#x2260;" horiz-adv-x="510" 
d="M172 135h-122v80h147l39 120h-186v80h211l44 135h76l-44 -135h123v-80h-148l-39 -120h187v-80h-212l-44 -135h-76z" />
    <glyph glyph-name="lessequal" unicode="&#x2264;" horiz-adv-x="407" 
d="M60 0v80h287v-80h-287zM60 342l182 203h105l-183 -203l183 -202h-105z" />
    <glyph glyph-name="greaterequal" unicode="&#x2265;" horiz-adv-x="407" 
d="M60 0v80h287v-80h-287zM165 140h-105l183 202l-183 203h105l182 -203z" />
    <glyph glyph-name="at.caps" horiz-adv-x="774" 
d="M60 399q0 64 19.5 115t60 86.5t102 54.5t145.5 19q83 0 144.5 -19t102 -54.5t60.5 -86.5t20 -115v-146q0 -128 -80.5 -201.5t-246.5 -73.5q-164 0 -245.5 73.5t-81.5 201.5v146zM136 257q0 -207 251 -207t251 207v138q0 207 -251 207t-251 -207v-138zM228 256
q0 51 34.5 74.5t89.5 26.5l110 6v35q0 32 -17.5 45t-59.5 13q-38 0 -55.5 -14.5t-17.5 -49.5h-70q0 37 11 61.5t30.5 39t45.5 20t56 5.5q73 0 110 -26t37 -94v-240h-51l-8 29q-26 -17 -54 -27t-60 -10q-61 0 -96 26t-35 80zM361 213q30 0 55.5 10t45.5 23v64l-104 -8
q-30 -2 -44.5 -11t-14.5 -32q0 -46 62 -46z" />
    <glyph glyph-name="caron.salt" horiz-adv-x="172" 
d="M50 670h92l-28 -217h-64v217z" />
    <glyph glyph-name="commaaccent" horiz-adv-x="250" 
d="M77 -60h109l-66 -130h-75z" />
    <glyph glyph-name="one.tnum" horiz-adv-x="540" 
d="M148 94h88v462h-108v56l120 38h98v-556h88v-94h-286v94z" />
    <glyph glyph-name="two.tnum" horiz-adv-x="540" 
d="M47 456q0 98 52.5 151.5t166.5 53.5q63 0 105 -14.5t67 -40.5t35.5 -63t10.5 -83q0 -58 -24 -96t-60 -65t-78 -47t-78 -41.5t-60 -48.5t-24 -68h333v-94h-447v63q0 66 24 109t60.5 73t79 51.5t79 43.5t60.5 48.5t24 67.5q0 56 -22.5 83.5t-84.5 27.5t-85.5 -27.5
t-23.5 -83.5h-110z" />
    <glyph glyph-name="three.tnum" horiz-adv-x="540" 
d="M389 188q0 28 -8.5 47t-22.5 30t-32.5 15.5t-38.5 4.5h-71v90h66q45 0 69.5 22.5t24.5 71.5q0 47 -25.5 72.5t-85.5 25.5q-62 0 -87.5 -27.5t-25.5 -83.5h-110q0 98 53.5 151.5t169.5 53.5q60 0 102 -13.5t68.5 -38.5t38.5 -60.5t12 -80.5q0 -48 -27.5 -82t-72.5 -51
q54 -17 84.5 -53t30.5 -98q0 -46 -11 -82t-38 -61t-72 -38.5t-112 -13.5q-63 0 -107 13.5t-71 39.5t-39 64t-12 88h110q0 -56 26.5 -83.5t92.5 -27.5t93.5 24.5t27.5 80.5z" />
    <glyph glyph-name="four.tnum" horiz-adv-x="540" 
d="M330 142h-310v85l279 423h141v-418h80v-90h-80v-142h-110v142zM330 232v318l-207 -318h207z" />
    <glyph glyph-name="five.tnum" horiz-adv-x="540" 
d="M168 380q30 19 65 30.5t70 11.5q45 0 81.5 -10t62 -33.5t39 -63.5t13.5 -100q0 -55 -12.5 -97t-39.5 -70.5t-71 -43.5t-107 -15q-120 0 -174 52.5t-54 152.5h110q0 -56 28 -83.5t90 -27.5t91 30t29 102t-28.5 101t-87.5 29q-28 0 -56.5 -13t-45.5 -27h-113l30 345h380
v-94h-286z" />
    <glyph glyph-name="six.tnum" horiz-adv-x="540" 
d="M152 352q31 19 67 29t82 10q106 0 151 -48t45 -139q0 -48 -11.5 -87.5t-38 -68t-69.5 -44t-107 -15.5q-66 0 -110 16t-70.5 45t-37.5 71t-11 95v220q0 115 53.5 170t168.5 55q118 0 169.5 -48t51.5 -144h-110q0 51 -24.5 74.5t-86.5 23.5q-58 0 -85 -28t-27 -102v-85z
M274 316q-35 0 -66 -10.5t-56 -28.5v-61q0 -37 5.5 -62.5t19 -41t36 -22.5t55.5 -7q69 0 94 28.5t25 88.5t-23.5 88t-89.5 28z" />
    <glyph glyph-name="seven.tnum" horiz-adv-x="540" 
d="M145 0l229 556h-325v94h442v-82l-230 -568h-116z" />
    <glyph glyph-name="eight.tnum" horiz-adv-x="540" 
d="M270 -11q-123 0 -181 42t-58 142q0 67 31.5 105t82.5 55q-46 18 -72 53.5t-26 92.5q0 100 57 141t166 41q108 0 165.5 -41t57.5 -141q0 -57 -26.5 -92.5t-71.5 -53.5q51 -17 82.5 -55t31.5 -105q0 -100 -58 -142t-181 -42zM270 567q-59 0 -86 -20t-27 -77q0 -31 7 -50.5
t21.5 -31t35.5 -15.5t49 -4t49 4t35 15.5t21.5 31t7.5 50.5q0 57 -27 77t-86 20zM270 83q66 0 96.5 22.5t30.5 77.5q0 57 -29.5 80.5t-97.5 23.5t-97.5 -23.5t-29.5 -80.5q0 -55 30.5 -77.5t96.5 -22.5z" />
    <glyph glyph-name="nine.tnum" horiz-adv-x="540" 
d="M275 83q58 0 85 28t27 102v84q-32 -18 -68 -28t-81 -10q-53 0 -90.5 12t-61 36t-34 59t-10.5 80q0 48 11.5 87.5t38 68t69.5 44t107 15.5q66 0 110 -16t70.5 -45t37.5 -71.5t11 -94.5v-220q0 -115 -53.5 -170t-168.5 -55q-118 0 -169.5 48t-51.5 144h110
q0 -51 24.5 -74.5t86.5 -23.5zM265 334q35 0 66 10t56 28v62q0 37 -5.5 62t-19 41t-36 23t-55.5 7q-69 0 -94 -28.5t-25 -88.5t23.5 -88t89.5 -28z" />
    <glyph glyph-name="zero.tnum" horiz-adv-x="540" 
d="M151 214q0 -40 7 -65.5t21.5 -40t37 -20t53.5 -5.5t53.5 5.5t37 20t21.5 40t7 65.5v222q0 40 -7 65.5t-21.5 40t-37 20t-53.5 5.5t-53.5 -5.5t-37 -20t-21.5 -40t-7 -65.5v-222zM499 218q0 -124 -56.5 -176.5t-172.5 -52.5t-172.5 52.5t-56.5 176.5v215q0 62 14 105.5
t42.5 70.5t71.5 39.5t101 12.5t101 -12.5t71.5 -39.5t42.5 -70.5t14 -105.5v-215z" />
    <glyph glyph-name="dollar.tnum" horiz-adv-x="540" 
d="M227 -20v89q-48 4 -80 16.5t-51 33t-26.5 49t-7.5 64.5h108q0 -20 4 -34t15 -23t30.5 -13t49.5 -4q32 0 52 4t31 12t14.5 19.5t3.5 27.5q0 17 -4.5 29.5t-17.5 21t-35.5 14t-59.5 8.5q-54 4 -89.5 14t-56.5 27.5t-29.5 43t-8.5 60.5q0 69 41 105.5t117 43.5v82h87v-82
q82 -8 118 -45.5t36 -117.5h-108q0 15 -3 29t-13 24t-28.5 16t-48.5 6q-47 0 -68.5 -16t-21.5 -46q0 -32 19 -48.5t77 -20.5q62 -5 102 -15t63 -27t31.5 -43t8.5 -63q0 -27 -4.5 -53t-21 -46.5t-49.5 -34.5t-89 -18v-89h-87z" />
    <glyph glyph-name="cent.tnum" horiz-adv-x="540" 
d="M374 402q-2 55 -23.5 74.5t-73.5 19.5q-32 0 -53 -6.5t-34 -22.5t-18.5 -44.5t-5.5 -71.5v-52q0 -44 5.5 -72t18.5 -44t34 -22.5t53 -6.5q52 0 73.5 19t23.5 75h108q0 -92 -40.5 -133t-119.5 -49v-86h-87v85q-45 4 -78.5 18t-55.5 41.5t-32.5 70t-10.5 104.5v52
q0 61 11 103.5t33 70t55.5 41.5t77.5 18v86h87v-86q79 -8 119.5 -49.5t40.5 -132.5h-108z" />
    <glyph glyph-name="sterling.tnum" horiz-adv-x="540" 
d="M34 0v94q53 0 78.5 24t25.5 83q0 16 -5.5 36.5t-11.5 41.5h-87v71h67q-9 32 -18.5 62.5t-9.5 67.5q0 48 14 82.5t40 56t61.5 32t79.5 10.5q55 0 92.5 -9.5t61 -30.5t34 -55.5t10.5 -85.5h-110q0 47 -20 67t-67 20q-48 0 -67 -20.5t-19 -66.5q0 -36 7.5 -67t15.5 -63h117
v-71h-105q5 -18 8 -35t3 -34q0 -42 -10.5 -69t-35.5 -47h138q35 0 55 15.5t20 63.5h110q0 -46 -8.5 -78.5t-27.5 -53.5t-50 -31t-77 -10h-309z" />
    <glyph glyph-name="Euro.tnum" horiz-adv-x="540" 
d="M184 355v-61h152l-9 -54h-143v-29q0 -73 28 -100.5t90 -27.5q60 0 86 25.5t26 88.5h110q0 -110 -53 -159t-169 -49q-59 0 -102 13t-71 40.5t-41.5 72t-13.5 107.5v18h-59v54h59v61h-59v54h59v19q0 126 55 179.5t173 53.5q116 0 169 -49t53 -159h-110q0 60 -26 87t-86 27
q-62 0 -90 -27.5t-28 -100.5v-30h171l-9 -54h-162z" />
    <glyph glyph-name="yen.tnum" horiz-adv-x="540" 
d="M215 74h-128v53h128v67h-128v53h128l-187 403h123l118 -294h2l118 294h123l-187 -403h128v-53h-128v-67h128v-53h-128v-74h-110v74z" />
    <glyph glyph-name="numbersign.tnum" horiz-adv-x="540" 
d="M486 161h-97l-14 -161h-76l14 161h-117l-14 -161h-75l14 161h-97l6 66h97l17 197h-97l6 66h97l14 160h75l-14 -160h117l14 160h76l-14 -160h97l-6 -66h-97l-17 -197h97zM202 227h117l17 197h-117z" />
    <glyph glyph-name="percent.tnum" horiz-adv-x="540" 
d="M104 0h-76l408 650h76zM145 602q-29 0 -41 -15t-12 -61t12 -61t41 -15t41 15t12 61t-12 61t-41 15zM145 391q-32 0 -55.5 6.5t-39 22.5t-23 42t-7.5 64q0 76 30.5 105.5t94.5 29.5t94.5 -29.5t30.5 -105.5q0 -38 -7.5 -64t-23 -42t-39 -22.5t-55.5 -6.5zM395 200
q-29 0 -41 -15t-12 -61t12 -61t41 -15t41 15t12 61t-12 61t-41 15zM395 -11q-32 0 -55.5 6.5t-39 22.5t-23 42t-7.5 64q0 76 30.5 105.5t94.5 29.5t94.5 -29.5t30.5 -105.5q0 -38 -7.5 -64t-23 -42t-39 -22.5t-55.5 -6.5z" />
    <glyph glyph-name="one.onum" horiz-adv-x="346" 
d="M148 0v410h-98v50l140 40h66v-500h-108z" />
    <glyph glyph-name="two.onum" horiz-adv-x="498" 
d="M249 421q-55 0 -75.5 -19.5t-20.5 -60.5h-108q0 36 10 67.5t33.5 54t62.5 35.5t98 13q56 0 95 -12.5t63 -34t34.5 -51.5t10.5 -66q0 -42 -22 -69.5t-55.5 -46t-72.5 -32t-72.5 -28t-55.5 -33.5t-22 -48h309v-90h-423v48q0 59 22.5 96t56.5 60.5t74 38t74 27.5t56.5 29
t22.5 43q0 39 -19.5 59t-75.5 20z" />
    <glyph glyph-name="three.onum" horiz-adv-x="526" 
d="M457 340q0 -57 -23 -91.5t-65 -52.5q60 -17 88.5 -56.5t28.5 -108.5q0 -48 -11 -87.5t-38 -67t-73.5 -42.5t-116.5 -15q-23 0 -48 2.5t-49 7t-46 10.5t-40 13v95q41 -17 89.5 -27.5t93.5 -10.5q74 0 102.5 31t28.5 93q0 33 -5.5 55.5t-18.5 36t-35 19.5t-54 6h-76v86h76
q42 0 63 21t21 75q0 20 -4 36.5t-14.5 28t-30 18t-50.5 6.5q-56 0 -76.5 -19.5t-20.5 -60.5h-108q0 36 9.5 67.5t33 54t62.5 35.5t99 13q64 0 104.5 -14t63.5 -38t31.5 -55t8.5 -64z" />
    <glyph glyph-name="four.onum" horiz-adv-x="540" 
d="M330 0h-310v85l280 415h140v-410h80v-90h-80v-170h-110v170zM330 90v310l-207 -310h207z" />
    <glyph glyph-name="five.onum" horiz-adv-x="512" 
d="M220 -181q-45 0 -93 8.5t-87 22.5v99q38 -16 87 -27t91 -11q43 0 71.5 9.5t45 28.5t23 47t6.5 65t-5.5 61t-18 38t-33 20t-49.5 6t-59.5 -9t-53.5 -23h-90l31 346h344v-90h-256l-16 -173q24 14 58.5 23.5t69.5 9.5q92 0 140.5 -50.5t48.5 -160.5q0 -52 -11 -96t-40 -76
t-78.5 -50t-125.5 -18z" />
    <glyph glyph-name="six.onum" horiz-adv-x="533" 
d="M158 345q29 19 62 30t76 11q100 0 143.5 -50t43.5 -138q0 -47 -11 -85t-36.5 -66t-66.5 -43t-101 -15q-62 0 -104 15.5t-67.5 44t-36 69.5t-10.5 92v213q0 111 51 164.5t160 53.5q111 0 159 -46.5t48 -138.5h-103q0 50 -22.5 72.5t-81.5 22.5q-54 0 -78.5 -27.5
t-24.5 -99.5v-79zM271 307q-33 0 -61.5 -10.5t-51.5 -27.5v-59q0 -36 5 -60.5t17 -40t32.5 -22t52.5 -6.5q33 0 54 6.5t33.5 20.5t17.5 35.5t5 50.5q0 58 -21.5 85.5t-82.5 27.5z" />
    <glyph glyph-name="seven.onum" horiz-adv-x="442" 
d="M106 -170l202 580h-288v90h402v-78l-203 -592h-113z" />
    <glyph glyph-name="eight.onum" horiz-adv-x="526" 
d="M282 363q35 0 57.5 25t22.5 67q0 54 -25.5 75t-73.5 21t-73.5 -21t-25.5 -75q0 -42 22.5 -67t57.5 -25h38zM263 79q61 0 88.5 23.5t27.5 75.5q0 45 -24.5 75t-73.5 30h-37q-48 0 -72.5 -30t-24.5 -75q0 -52 27.5 -75.5t88.5 -23.5zM263 -11q-118 0 -170.5 40.5
t-52.5 135.5q0 68 31.5 103.5t91.5 52.5q-48 15 -76.5 54t-28.5 97q0 47 14.5 79.5t41.5 52.5t64.5 28.5t84.5 8.5q46 0 84 -8.5t65 -28.5t41.5 -52.5t14.5 -79.5q0 -60 -28.5 -98t-76.5 -53q60 -17 91.5 -52.5t31.5 -103.5q0 -95 -52.5 -135.5t-170.5 -40.5z" />
    <glyph glyph-name="nine.onum" horiz-adv-x="523" 
d="M261 -181q-47 0 -93.5 9t-83.5 23v98q41 -17 85.5 -28.5t89.5 -11.5q27 0 47 5t33 18.5t19.5 36.5t6.5 59v93q-58 -37 -138 -37q-50 0 -85.5 14t-58 40t-33 64t-10.5 85q0 51 11 92.5t36.5 70.5t66.5 45t101 16q62 0 104 -16.5t67.5 -46t36 -71.5t10.5 -93v-258
q0 -111 -51.5 -159t-160.5 -48zM252 163q67 0 113 34v83q0 72 -22 105.5t-85 33.5q-65 0 -87.5 -31.5t-22.5 -96.5q0 -29 4.5 -53t16.5 -40.5t32 -25.5t51 -9z" />
    <glyph glyph-name="zero.onum" horiz-adv-x="504" 
d="M356 280q0 77 -25 109t-79 32t-79 -32t-25 -109v-60q0 -77 25 -109t79 -32t79 32t25 109v60zM464 220q0 -65 -15 -109.5t-42.5 -71.5t-66.5 -38.5t-88 -11.5t-88 11.5t-66.5 38.5t-42.5 71.5t-15 109.5v60q0 65 15 109.5t42.5 71.5t66.5 38.5t88 11.5t88 -11.5
t66.5 -38.5t42.5 -71.5t15 -109.5v-60z" />
    <glyph glyph-name="dollar.onum" horiz-adv-x="531" 
d="M476 142q0 -26 -5 -51t-21.5 -46t-48.5 -35.5t-85 -18.5v-86h-98v87q-89 8 -123.5 50t-34.5 111h108q0 -20 4.5 -34t15.5 -23t30.5 -13t48.5 -4q31 0 50.5 4t31 12t15.5 19.5t4 27.5q0 17 -4.5 29.5t-17.5 21t-35.5 14t-59.5 8.5q-53 4 -88.5 15t-56.5 29t-30 43t-9 58
q0 68 39.5 104t111.5 44v87h98v-86q78 -8 114 -46.5t36 -116.5h-108q0 15 -3 29t-13 24t-28.5 16t-48.5 6q-47 0 -68.5 -16t-21.5 -46q0 -32 19 -48.5t77 -20.5q62 -5 102 -15t63 -27t31.5 -43t8.5 -63z" />
    <glyph glyph-name="cent.onum" horiz-adv-x="508" 
d="M361 327q-2 55 -23.5 74.5t-73.5 19.5q-32 0 -53 -6.5t-34 -22.5t-18.5 -44.5t-5.5 -71.5v-52q0 -44 5.5 -72t18.5 -44t34 -22.5t53 -6.5q52 0 73.5 19t23.5 75h108q0 -91 -39.5 -132.5t-117.5 -49.5v-86h-98v87q-43 4 -75 18.5t-53 42t-31 69.5t-10 102v52
q0 60 10.5 102t31.5 69.5t53 41.5t74 19v87h98v-86q77 -8 117 -50t40 -132h-108z" />
    <glyph glyph-name="sterling.onum" horiz-adv-x="563" 
d="M190 465q0 -38 8.5 -72t19.5 -66h106v-67h-84q5 -17 7.5 -34.5t2.5 -35.5q0 -70 -37 -100h114q26 0 42 4t25 13.5t12 26t3 40.5h108q0 -50 -9 -83.5t-28 -53.5t-49 -28.5t-72 -8.5h-309v90h11q51 2 75 22.5t24 70.5q0 20 -4.5 39t-12.5 38h-93v67h64q-13 29 -22.5 63.5
t-9.5 76.5q0 89 50 131t141 42q53 0 90 -10.5t60 -31.5t33 -53.5t10 -76.5h-108q0 42 -18.5 62t-65.5 20q-44 0 -64 -20t-20 -65z" />
    <glyph glyph-name="Euro.onum" horiz-adv-x="598" 
d="M215 346v-61h148l-9 -54h-139v-24q0 -73 27.5 -100.5t89.5 -27.5q60 0 85 25.5t25 88.5h108q0 -55 -12.5 -93.5t-39 -63t-67.5 -36t-99 -11.5q-59 0 -101.5 12t-70 39.5t-40.5 71t-13 106.5v13h-60v54h60v61h-60v54h60v12q0 63 13 106.5t40.5 71t70 39.5t101.5 12
q115 0 166.5 -47.5t51.5 -156.5h-108q0 60 -25 87t-85 27q-62 0 -89.5 -27.5t-27.5 -100.5v-23h167l-9 -54h-158z" />
    <glyph glyph-name="yen.onum" horiz-adv-x="536" 
d="M215 74h-128v53h128v67h-128v53h128l-187 383h123l118 -274h2l118 274h123l-187 -383h128v-53h-128v-67h128v-53h-128v-74h-110v74z" />
    <glyph glyph-name="numbersign.onum" horiz-adv-x="564" 
d="M499 161h-97l-14 -161h-76l14 161h-117l-14 -161h-75l14 161h-97l6 66h97l15 177h-97l6 66h97l14 160h75l-14 -160h117l14 160h76l-14 -160h97l-6 -66h-97l-15 -177h97zM215 227h117l15 177h-117z" />
    <glyph glyph-name="percent.onum" horiz-adv-x="683" 
d="M175 0h-76l408 630h77zM132 501q0 -27 3 -45t10 -28t19.5 -14t30.5 -4q34 0 48.5 17t14.5 69t-14.5 69t-48.5 17t-48.5 -17.5t-14.5 -63.5zM425 141q0 -29 3 -47t10 -28.5t19.5 -14.5t30.5 -4q34 0 48.5 17t14.5 69t-14.5 69t-48.5 17t-48.5 -16t-14.5 -62zM623 133
q0 -41 -8 -69t-25 -44.5t-42.5 -23.5t-59.5 -7q-35 0 -60.5 7t-42 23.5t-24.5 44.5t-8 69q0 82 32.5 113.5t102.5 31.5q69 0 102 -31.5t33 -113.5zM330 496q0 -41 -8 -69t-25 -45t-42.5 -24t-59.5 -7q-35 0 -60.5 7t-42 24t-24.5 45t-8 69q0 82 32.5 113.5t102.5 31.5
q69 0 102 -31.5t33 -113.5z" />
    <glyph glyph-name="a.smcp" horiz-adv-x="492" 
d="M335 111h-178l-28 -111h-109l157 556h138l157 -556h-109zM180 203h132l-65 259h-2z" />
    <glyph glyph-name="b.smcp" horiz-adv-x="509" 
d="M60 556h210q97 0 138.5 -39t41.5 -107q0 -47 -21.5 -78.5t-59.5 -48.5q53 -17 76.5 -50.5t23.5 -83.5q0 -78 -45 -113.5t-148 -35.5h-216v556zM168 236v-146h107q50 0 68 18t18 55q0 36 -17.5 54.5t-64.5 18.5h-111zM168 324h104q42 0 57 19t15 54t-17.5 52t-62.5 17h-96
v-142z" />
    <glyph glyph-name="c.smcp" horiz-adv-x="488" 
d="M247 81q55 0 74 22t19 69h108q0 -42 -10 -75.5t-33 -57.5t-62 -37t-96 -13q-52 0 -90.5 11t-64.5 35t-39 63t-13 95v170q0 108 49.5 156t157.5 48q57 0 96 -13t62 -36.5t33 -57.5t10 -76h-108q0 46 -19 68.5t-74 22.5q-33 0 -52.5 -7.5t-30 -22t-13.5 -35t-3 -46.5v-172
q0 -27 3 -47.5t13.5 -34.5t30 -21.5t52.5 -7.5z" />
    <glyph glyph-name="d.smcp" horiz-adv-x="527" 
d="M60 0v556h210q53 0 92 -9.5t64.5 -32t38 -61t12.5 -95.5v-159q0 -57 -12.5 -95.5t-38 -61.5t-64.5 -32.5t-92 -9.5h-210zM260 90q31 0 52 5.5t34 18t18 33t5 51.5v159q0 31 -5 51.5t-18 33.5t-34 18.5t-52 5.5h-92v-376h92z" />
    <glyph glyph-name="e.smcp" horiz-adv-x="462" 
d="M379 236h-211v-146h244v-90h-352v556h352v-90h-244v-142h211v-88z" />
    <glyph glyph-name="f.smcp" horiz-adv-x="434" 
d="M361 236h-193v-236h-108v556h334v-90h-226v-142h193v-88z" />
    <glyph glyph-name="g.smcp" horiz-adv-x="522" 
d="M259 -11q-52 0 -91 11t-65.5 35t-39.5 63t-13 95v174q0 107 51 153.5t158 46.5q57 0 95.5 -13t62 -36.5t33 -57.5t9.5 -76h-108q0 43 -19.5 68t-72.5 25q-59 0 -80 -28.5t-21 -81.5v-175q0 -27 3.5 -48t14.5 -35.5t30.5 -22t52.5 -7.5q31 0 51 6.5t30.5 17t14.5 24.5
t4 29v76h-99v90h207v-322h-48l-16 46q-20 -23 -52.5 -40t-91.5 -17z" />
    <glyph glyph-name="h.smcp" horiz-adv-x="524" 
d="M464 0h-108v236h-188v-236h-108v556h108v-232h188v232h108v-556z" />
    <glyph glyph-name="i.smcp" 
d="M60 556h108v-556h-108v556z" />
    <glyph glyph-name="j.smcp" horiz-adv-x="335" 
d="M77 466v90h198v-429q0 -74 -33.5 -106t-103.5 -32q-26 0 -52 3t-46 8v90q23 -5 39.5 -7.5t35.5 -2.5q29 0 40.5 12.5t11.5 48.5v325h-90z" />
    <glyph glyph-name="k.smcp" horiz-adv-x="458" 
d="M168 0h-108v556h108v-225l148 225h129l-192 -268l195 -288h-128l-152 240v-240z" />
    <glyph glyph-name="l.smcp" horiz-adv-x="389" 
d="M60 556h108v-466h181v-90h-289v556z" />
    <glyph glyph-name="m.smcp" horiz-adv-x="668" 
d="M333 138h2l120 418h153v-556h-105v428l-125 -428h-89l-124 428v-428h-105v556h153z" />
    <glyph glyph-name="n.smcp" horiz-adv-x="535" 
d="M475 0h-138l-178 417q2 -35 3 -72t1 -78v-267h-103v556h138l179 -417q-2 42 -3.5 87t-1.5 87v243h103v-556z" />
    <glyph glyph-name="o.smcp" horiz-adv-x="508" 
d="M360 358q0 35 -6 58t-18.5 36.5t-33 19t-48.5 5.5q-29 0 -49 -5.5t-32.5 -19t-18.5 -36.5t-6 -58v-160q0 -35 6 -58t18.5 -36.5t32.5 -19t49 -5.5q28 0 48.5 5.5t33 19t18.5 36.5t6 58v160zM468 198q0 -59 -13 -98.5t-39.5 -64.5t-67 -35.5t-94.5 -10.5t-94.5 10.5
t-67 35.5t-39.5 64.5t-13 98.5v160q0 58 13 98t39.5 65t67 35.5t94.5 10.5t94.5 -10.5t67 -35.5t39.5 -65t13 -98v-160z" />
    <glyph glyph-name="p.smcp" horiz-adv-x="488" 
d="M60 556h197q53 0 91 -9t62.5 -30t36 -55t11.5 -84q0 -99 -47 -140t-153 -41h-90v-197h-108v556zM168 285h90q54 0 73 22.5t19 69.5q0 43 -19 66t-74 23h-89v-181z" />
    <glyph glyph-name="q.smcp" horiz-adv-x="528" 
d="M478 198q0 -104 -42 -151.5t-127 -55.5q4 -23 18 -31t40 -8h42l-23 -53h-55q-40 0 -72 20.5t-40 71.5q-86 8 -127.5 55.5t-41.5 151.5v160q0 58 13 98t39.5 65t67 35.5t94.5 10.5t94.5 -10.5t67 -35.5t39.5 -65t13 -98v-160zM370 358q0 35 -6 58t-18.5 36.5t-33 19
t-48.5 5.5q-29 0 -49 -5.5t-32.5 -19t-18.5 -36.5t-6 -58v-160q0 -35 6 -58t18.5 -36.5t32.5 -19t49 -5.5q28 0 48.5 5.5t33 19t18.5 36.5t6 58v160z" />
    <glyph glyph-name="r.smcp" horiz-adv-x="515" 
d="M60 556h197q53 0 91 -9t62.5 -30t36 -55t11.5 -84q0 -70 -23.5 -110.5t-72.5 -57.5l113 -210h-113l-103 197h-91v-197h-108v556zM168 285h90q54 0 73 23t19 70q0 43 -19 65.5t-74 22.5h-89v-181z" />
    <glyph glyph-name="s.smcp" horiz-adv-x="501" 
d="M250 79q31 0 51 5t31 14t15.5 23t4.5 32q0 21 -4.5 36t-17 25t-34 16.5t-55.5 11.5q-100 13 -145.5 50.5t-45.5 117.5q0 76 50 116.5t147 40.5q104 0 151.5 -41.5t47.5 -128.5h-106q0 14 -3 28t-13 25.5t-28.5 19t-49.5 7.5q-46 0 -68.5 -18.5t-22.5 -52.5
q0 -21 5.5 -35.5t17.5 -24t31.5 -15t48.5 -9.5q64 -8 104 -22t62 -35.5t29.5 -50t7.5 -64.5q0 -75 -50 -118t-161 -43q-57 0 -97 10.5t-65 32t-36.5 54t-11.5 77.5h108q0 -21 4.5 -37t16 -26.5t31 -15.5t50.5 -5z" />
    <glyph glyph-name="t.smcp" horiz-adv-x="432" 
d="M162 466h-137v90h382v-90h-137v-466h-108v466z" />
    <glyph glyph-name="u.smcp" horiz-adv-x="524" 
d="M163 556v-379q0 -55 21.5 -76t77.5 -21t77.5 21t21.5 76v379h108v-379q0 -53 -14.5 -89t-41 -58t-65 -31.5t-86.5 -9.5t-86.5 9.5t-65 31.5t-41 58t-14.5 89v379h108z" />
    <glyph glyph-name="v.smcp" horiz-adv-x="482" 
d="M240 112h2l113 444h112l-164 -556h-124l-164 556h112z" />
    <glyph glyph-name="w.smcp" horiz-adv-x="774" 
d="M453 556l87 -433h2l87 433h110l-133 -556h-129l-90 450l-90 -450h-129l-133 556h110l87 -433h2l87 433h132z" />
    <glyph glyph-name="x.smcp" horiz-adv-x="469" 
d="M292 286l162 -286h-117l-102 198l-102 -198h-118l162 286l-156 270h118l96 -184l95 184h118z" />
    <glyph glyph-name="y.smcp" horiz-adv-x="440" 
d="M166 205l-156 351h113l96 -246h2l96 246h113l-156 -351v-205h-108v205z" />
    <glyph glyph-name="z.smcp" horiz-adv-x="458" 
d="M49 556h359v-74l-242 -392h252v-90h-378v72l243 394h-234v90z" />
    <glyph glyph-name="ampersand.smcp" horiz-adv-x="565" 
d="M454 236v-83q0 -33 17 -48t54 -15v-90q-52 0 -80 11.5t-47 37.5q-16 -15 -31.5 -26.5t-33.5 -19t-40.5 -11t-51.5 -3.5q-106 0 -153.5 40t-47.5 120q0 48 25.5 83.5t74.5 49.5q-45 17 -67.5 51.5t-22.5 76.5q0 75 48 115.5t147 40.5q51 0 88 -8t61 -27.5t35.5 -51
t11.5 -77.5h-105q0 40 -22 57.5t-69 17.5q-48 0 -69 -18.5t-21 -56.5q0 -42 25.5 -60t74.5 -18h266v-88h-67zM247 79q57 0 78 18.5t21 58.5v80h-109q-38 0 -62 -20t-24 -61q0 -45 25 -60.5t71 -15.5z" />
    <glyph glyph-name="one.smcp" horiz-adv-x="340" 
d="M142 0v466h-102v51l139 39h71v-556h-108z" />
    <glyph glyph-name="two.smcp" horiz-adv-x="506" 
d="M50 61q0 58 21.5 96.5t54 64.5t70.5 43.5t70.5 35t54 39t21.5 54.5q0 17 -3.5 32t-13.5 26.5t-27.5 18t-45.5 6.5q-53 0 -72 -23.5t-19 -61.5h-108q0 87 51 131t148 44q106 0 152 -45t46 -126q0 -49 -21.5 -81.5t-53.5 -55t-69 -39t-69 -34.5t-53.5 -40t-21.5 -56h298
v-90h-410v61z" />
    <glyph glyph-name="three.smcp" horiz-adv-x="520" 
d="M53 392q0 92 51.5 133.5t148.5 41.5q105 0 152 -42.5t47 -123.5q0 -47 -23 -75t-66 -42q107 -24 107 -130q0 -39 -10 -70t-34.5 -52t-65 -32t-101.5 -11q-57 0 -97 10.5t-65 32t-36 54t-11 77.5h108q0 -21 4.5 -37t16 -26.5t31 -15.5t50.5 -5t51 5t31.5 15t15.5 25t4 35
q0 43 -19 61t-64 18h-63v88h63q35 0 50 17t15 53q0 38 -20 59.5t-71 21.5q-48 0 -70 -20t-22 -65h-108z" />
    <glyph glyph-name="four.smcp" horiz-adv-x="503" 
d="M301 108h-271v83l259 365h120v-358h64v-90h-64v-108h-108v108zM301 198v242l-171 -242h171z" />
    <glyph glyph-name="five.smcp" horiz-adv-x="517" 
d="M64 252l29 304h340v-90h-247l-12 -137q29 16 58 23t58 7q93 0 135 -42.5t42 -139.5q0 -95 -48 -141.5t-162 -46.5q-59 0 -99 12.5t-64 35t-34 54.5t-10 72h108q0 -43 23 -63.5t76 -20.5q30 0 50 5.5t31 17.5t15.5 30.5t4.5 44.5q0 60 -20.5 84t-68.5 24q-59 0 -108 -33
h-97z" />
    <glyph glyph-name="six.smcp" horiz-adv-x="513" 
d="M158 309q26 17 59.5 26.5t65.5 9.5q51 0 85.5 -10t55.5 -31t30 -53.5t9 -77.5q0 -96 -48.5 -140t-157.5 -44q-54 0 -93.5 11.5t-64.5 36.5t-37 65t-12 96v161q0 112 51.5 160t154.5 48q46 0 81.5 -7.5t60.5 -26.5t38.5 -50.5t14.5 -79.5h-108q0 41 -20.5 57.5t-68.5 16.5
q-53 0 -74.5 -27t-21.5 -91v-50zM261 272q-30 0 -56 -7.5t-47 -21.5v-61q0 -60 26.5 -81.5t71.5 -21.5q55 0 77.5 23.5t22.5 71.5q0 55 -20 76.5t-75 21.5z" />
    <glyph glyph-name="seven.smcp" horiz-adv-x="454" 
d="M120 0l183 471h-263v85h374v-71l-181 -485h-113z" />
    <glyph glyph-name="eight.smcp" horiz-adv-x="532" 
d="M266 -11q-115 0 -165.5 39t-50.5 117q0 51 27.5 87t85.5 51q-53 14 -74 50.5t-21 84.5q0 80 54 114.5t144 34.5t143.5 -34.5t53.5 -114.5q0 -48 -21 -84.5t-73 -50.5q58 -15 85.5 -51t27.5 -87q0 -78 -50.5 -117t-165.5 -39zM284 323q28 0 49 18t21 56q0 47 -22 63.5
t-66 16.5q-45 0 -67 -16.5t-22 -63.5q0 -38 21 -56t50 -18h36zM249 245q-48 0 -69 -23.5t-21 -58.5q0 -45 24 -64.5t83 -19.5t83 19.5t24 64.5q0 35 -21 58.5t-69 23.5h-34z" />
    <glyph glyph-name="nine.smcp" horiz-adv-x="513" 
d="M355 244q-26 -17 -60 -24.5t-66 -7.5q-95 0 -137 43t-42 128q0 184 206 184q109 0 158 -48.5t49 -160.5v-161q0 -56 -11 -95.5t-36 -64.5t-64 -36.5t-95 -11.5q-45 0 -80.5 7.5t-60.5 26.5t-39 50.5t-15 79.5h108q0 -41 20.5 -57.5t68.5 -16.5q30 0 48.5 6.5t29 20.5
t14.5 36.5t4 54.5v47zM252 284q30 0 56 7.5t47 21.5v61q0 60 -26.5 81.5t-71.5 21.5q-55 0 -77.5 -23.5t-22.5 -71.5q0 -55 20 -76.5t75 -21.5z" />
    <glyph glyph-name="zero.smcp" horiz-adv-x="512" 
d="M462 198q0 -113 -51 -161t-155 -48t-155 48t-51 161v160q0 113 52 161t154 48q103 0 154.5 -48t51.5 -161v-160zM354 358q0 68 -22.5 93.5t-75.5 25.5t-75.5 -25.5t-22.5 -93.5v-160q0 -68 22.5 -93.5t75.5 -25.5t75.5 25.5t22.5 93.5v160z" />
    <glyph glyph-name="dollar.smcp" horiz-adv-x="516" 
d="M466 169q0 -26 -5 -51t-21.5 -46t-48.5 -35.5t-85 -18.5v-86h-98v87q-89 8 -123.5 50t-34.5 111h108q0 -20 4.5 -34t15.5 -23t30.5 -13t48.5 -4q31 0 50.5 4t31 12t15.5 19.5t4 27.5q0 17 -4.5 29.5t-17.5 21t-35.5 14t-59.5 8.5q-53 4 -88.5 15t-56.5 29t-30 43t-9 58
q0 68 39.5 104t111.5 44v87h98v-86q78 -8 114 -46.5t36 -116.5h-108q0 15 -3 29t-13 24t-28.5 16t-48.5 6q-47 0 -68.5 -16t-21.5 -46q0 -32 19 -48.5t77 -20.5q62 -5 102 -15t63 -27t31.5 -43t8.5 -63z" />
    <glyph glyph-name="cent.smcp" horiz-adv-x="524" 
d="M366 355q-2 55 -23.5 74.5t-73.5 19.5q-32 0 -53 -6.5t-34 -22.5t-18.5 -44.5t-5.5 -71.5v-52q0 -44 5.5 -72t18.5 -44t34 -22.5t53 -6.5q52 0 73.5 19t23.5 75h108q0 -91 -39.5 -132.5t-117.5 -49.5v-86h-98v87q-43 4 -75 18.5t-53 42t-31 69.5t-10 102v52
q0 60 10.5 102t31.5 69.5t53 41.5t74 19v87h98v-86q77 -8 117 -50t40 -132h-108z" />
    <glyph glyph-name="sterling.smcp" horiz-adv-x="539" 
d="M191 395q0 -31 4 -55t10 -45h100v-67h-82q4 -17 4 -42q0 -32 -8 -55.5t-27 -40.5h116q26 0 42 4t25 13.5t12.5 26t3.5 40.5h108q0 -50 -9 -83.5t-28 -53.5t-49.5 -28.5t-72.5 -8.5h-290v90q53 0 71.5 21.5t18.5 70.5q0 12 -2 23.5t-5 22.5h-83v67h58q-10 24 -17.5 50.5
t-7.5 60.5q0 78 46 118.5t139 40.5q52 0 88 -11t58 -32t31.5 -52.5t9.5 -73.5h-108q0 39 -16.5 59t-61.5 20q-42 0 -60 -19.5t-18 -60.5z" />
    <glyph glyph-name="Euro.smcp" horiz-adv-x="571" 
d="M218 304v-53h132l-9 -54h-123v-22q0 -55 22 -75.5t77 -20.5q57 0 76.5 21.5t19.5 72.5h108q0 -50 -10 -85t-34 -57t-63 -32t-97 -10q-114 0 -160.5 47t-46.5 144v17h-60v54h60v53h-60v54h60v16q0 49 10.5 85.5t35 60.5t64 35.5t97.5 11.5t97 -10t63 -31t34 -55t10 -82
h-108q0 49 -21.5 68.5t-74.5 19.5q-57 0 -78 -22.5t-21 -75.5v-21h151l-9 -54h-142z" />
    <glyph glyph-name="yen.smcp" horiz-adv-x="520" 
d="M203 221l-163 335h110l109 -249h2l109 249h110l-163 -335h121v-54h-124v-44h124v-54h-124v-69h-108v69h-124v54h124v44h-124v54h121z" />
    <glyph glyph-name="numbersign.smcp" horiz-adv-x="538" 
d="M472 131h-82l-11 -131h-80l11 131h-108l-11 -131h-80l11 131h-82l6 70h82l14 154h-82l6 70h82l11 131h80l-11 -131h108l11 131h80l-11 -131h82l-6 -70h-82l-14 -154h82zM208 201h108l14 154h-108z" />
    <glyph glyph-name="percent.smcp" horiz-adv-x="606" 
d="M159 0h-88l376 556h89zM284 439q0 -73 -28.5 -100t-88.5 -27q-61 0 -89 27t-28 100q0 72 28 99.5t89 27.5q60 0 88.5 -27.5t28.5 -99.5zM125 444q0 -43 8.5 -56.5t33.5 -13.5q23 0 32.5 12.5t9.5 52.5t-9.5 52.5t-32.5 12.5t-32.5 -12.5t-9.5 -47.5zM556 116
q0 -73 -28.5 -100t-88.5 -27q-61 0 -89 27t-28 100q0 72 28 99.5t89 27.5q60 0 88.5 -27.5t28.5 -99.5zM397 121q0 -43 8.5 -56.5t33.5 -13.5q23 0 32.5 12.5t9.5 52.5t-9.5 52.5t-32.5 12.5t-32.5 -12.5t-9.5 -47.5z" />
    <glyph glyph-name="one.tnum_smcp" horiz-adv-x="520" 
d="M130 90h87v372h-102v55l119 39h91v-466h87v-90h-282v90z" />
    <glyph glyph-name="two.tnum_smcp" horiz-adv-x="520" 
d="M55 61q0 58 21.5 96.5t54 64.5t70.5 43.5t70.5 35t54 39t21.5 54.5q0 17 -3.5 32t-13.5 26.5t-27.5 18t-45.5 6.5q-53 0 -72 -23.5t-19 -61.5h-108q0 87 51 131t148 44q106 0 152 -45t46 -126q0 -49 -21.5 -81.5t-53.5 -55t-69 -39t-69 -34.5t-53.5 -40t-21.5 -56h298
v-90h-410v61z" />
    <glyph glyph-name="three.tnum_smcp" horiz-adv-x="520" 
d="M53 392q0 92 51.5 133.5t148.5 41.5q105 0 152 -42.5t47 -123.5q0 -47 -23 -75t-66 -42q107 -24 107 -130q0 -39 -10 -70t-34.5 -52t-65 -32t-101.5 -11q-57 0 -97 10.5t-65 32t-36 54t-11 77.5h108q0 -21 4.5 -37t16 -26.5t31 -15.5t50.5 -5t51 5t31.5 15t15.5 25t4 35
q0 43 -19 61t-64 18h-63v88h63q35 0 50 17t15 53q0 38 -20 59.5t-71 21.5q-48 0 -70 -20t-22 -65h-108z" />
    <glyph glyph-name="four.tnum_smcp" horiz-adv-x="520" 
d="M309 108h-271v83l259 365h120v-358h64v-90h-64v-108h-108v108zM309 198v242l-171 -242h171z" />
    <glyph glyph-name="five.tnum_smcp" horiz-adv-x="520" 
d="M65 252l29 304h340v-90h-247l-12 -137q29 16 58 23t58 7q93 0 135 -42.5t42 -139.5q0 -95 -48 -141.5t-162 -46.5q-59 0 -99 12.5t-64 35t-34 54.5t-10 72h108q0 -43 23 -63.5t76 -20.5q30 0 50 5.5t31 17.5t15.5 30.5t4.5 44.5q0 60 -20.5 84t-68.5 24q-59 0 -108 -33
h-97z" />
    <glyph glyph-name="six.tnum_smcp" horiz-adv-x="520" 
d="M161 309q26 17 59.5 26.5t65.5 9.5q51 0 85.5 -10t55.5 -31t30 -53.5t9 -77.5q0 -96 -48.5 -140t-157.5 -44q-54 0 -93.5 11.5t-64.5 36.5t-37 65t-12 96v161q0 112 51.5 160t154.5 48q46 0 81.5 -7.5t60.5 -26.5t38.5 -50.5t14.5 -79.5h-108q0 41 -20.5 57.5t-68.5 16.5
q-53 0 -74.5 -27t-21.5 -91v-50zM264 272q-30 0 -56 -7.5t-47 -21.5v-61q0 -60 26.5 -81.5t71.5 -21.5q55 0 77.5 23.5t22.5 71.5q0 55 -20 76.5t-75 21.5z" />
    <glyph glyph-name="seven.tnum_smcp" horiz-adv-x="520" 
d="M145 0l201 471h-283v85h394v-71l-199 -485h-113z" />
    <glyph glyph-name="eight.tnum_smcp" horiz-adv-x="520" 
d="M260 -11q-115 0 -165.5 39t-50.5 117q0 51 27.5 87t85.5 51q-53 14 -74 50.5t-21 84.5q0 80 54 114.5t144 34.5t143.5 -34.5t53.5 -114.5q0 -48 -21 -84.5t-73 -50.5q58 -15 85.5 -51t27.5 -87q0 -78 -50.5 -117t-165.5 -39zM278 323q28 0 49 18t21 56q0 47 -22 63.5
t-66 16.5q-45 0 -67 -16.5t-22 -63.5q0 -38 21 -56t50 -18h36zM243 245q-48 0 -69 -23.5t-21 -58.5q0 -45 24 -64.5t83 -19.5t83 19.5t24 64.5q0 35 -21 58.5t-69 23.5h-34z" />
    <glyph glyph-name="nine.tnum_smcp" horiz-adv-x="520" 
d="M358 244q-26 -17 -60 -24.5t-66 -7.5q-95 0 -137 43t-42 128q0 184 206 184q109 0 158 -48.5t49 -160.5v-161q0 -56 -11 -95.5t-36 -64.5t-64 -36.5t-95 -11.5q-45 0 -80.5 7.5t-60.5 26.5t-39 50.5t-15 79.5h108q0 -41 20.5 -57.5t68.5 -16.5q30 0 48.5 6.5t29 20.5
t14.5 36.5t4 54.5v47zM255 284q30 0 56 7.5t47 21.5v61q0 60 -26.5 81.5t-71.5 21.5q-55 0 -77.5 -23.5t-22.5 -71.5q0 -55 20 -76.5t75 -21.5z" />
    <glyph glyph-name="zero.tnum_smcp" horiz-adv-x="520" 
d="M466 198q0 -113 -51 -161t-155 -48t-155 48t-51 161v160q0 113 52 161t154 48q103 0 154.5 -48t51.5 -161v-160zM358 358q0 68 -22.5 93.5t-75.5 25.5t-75.5 -25.5t-22.5 -93.5v-160q0 -68 22.5 -93.5t75.5 -25.5t75.5 25.5t22.5 93.5v160z" />
    <glyph glyph-name="dollar.tnum_smcp" horiz-adv-x="520" 
d="M468 169q0 -26 -5 -51t-21.5 -46t-48.5 -35.5t-85 -18.5v-86h-98v87q-89 8 -123.5 50t-34.5 111h108q0 -20 4.5 -34t15.5 -23t30.5 -13t48.5 -4q31 0 50.5 4t31 12t15.5 19.5t4 27.5q0 17 -4.5 29.5t-17.5 21t-35.5 14t-59.5 8.5q-53 4 -88.5 15t-56.5 29t-30 43t-9 58
q0 68 39.5 104t111.5 44v87h98v-86q78 -8 114 -46.5t36 -116.5h-108q0 15 -3 29t-13 24t-28.5 16t-48.5 6q-47 0 -68.5 -16t-21.5 -46q0 -32 19 -48.5t77 -20.5q62 -5 102 -15t63 -27t31.5 -43t8.5 -63z" />
    <glyph glyph-name="cent.tnum_smcp" horiz-adv-x="520" 
d="M364 355q-2 55 -23.5 74.5t-73.5 19.5q-32 0 -53 -6.5t-34 -22.5t-18.5 -44.5t-5.5 -71.5v-52q0 -44 5.5 -72t18.5 -44t34 -22.5t53 -6.5q52 0 73.5 19t23.5 75h108q0 -91 -39.5 -132.5t-117.5 -49.5v-86h-98v87q-43 4 -75 18.5t-53 42t-31 69.5t-10 102v52
q0 60 10.5 102t31.5 69.5t53 41.5t74 19v87h98v-86q77 -8 117 -50t40 -132h-108z" />
    <glyph glyph-name="sterling.tnum_smcp" horiz-adv-x="520" 
d="M176 395q0 -31 4 -55t10 -45h100v-67h-82q4 -17 4 -42q0 -32 -8 -55.5t-27 -40.5h116q26 0 42 4t25 13.5t12.5 26t3.5 40.5h108q0 -50 -9 -83.5t-28 -53.5t-49.5 -28.5t-72.5 -8.5h-290v90q53 0 71.5 21.5t18.5 70.5q0 12 -2 23.5t-5 22.5h-83v67h58q-10 24 -17.5 50.5
t-7.5 60.5q0 78 46 118.5t139 40.5q52 0 88 -11t58 -32t31.5 -52.5t9.5 -73.5h-108q0 39 -16.5 59t-61.5 20q-42 0 -60 -19.5t-18 -60.5z" />
    <glyph glyph-name="Euro.tnum_smcp" horiz-adv-x="520" 
d="M192 304v-53h132l-9 -54h-123v-22q0 -55 22 -75.5t77 -20.5q57 0 76.5 21.5t19.5 72.5h108q0 -50 -10 -85t-34 -57t-63 -32t-97 -10q-114 0 -160.5 47t-46.5 144v17h-60v54h60v53h-60v54h60v16q0 49 10.5 85.5t35 60.5t64 35.5t97.5 11.5t97 -10t63 -31t34 -55t10 -82
h-108q0 49 -21.5 68.5t-74.5 19.5q-57 0 -78 -22.5t-21 -75.5v-21h151l-9 -54h-142z" />
    <glyph glyph-name="yen.tnum_smcp" horiz-adv-x="520" 
d="M203 221l-163 335h110l109 -249h2l109 249h110l-163 -335h121v-54h-124v-44h124v-54h-124v-69h-108v69h-124v54h124v44h-124v54h121z" />
    <glyph glyph-name="numbersign.tnum_smcp" horiz-adv-x="558" 
d="M483 131h-87l-12 -131h-80l12 131h-99l-12 -131h-80l12 131h-87l6 70h87l13 154h-87l6 70h87l12 131h80l-12 -131h99l12 131h80l-12 -131h87l-6 -70h-87l-13 -154h87zM223 201h99l13 154h-99z" />
    <glyph glyph-name="percent.tnum_smcp" horiz-adv-x="520" 
d="M111 0h-88l386 556h89zM246 439q0 -73 -28.5 -100t-88.5 -27q-61 0 -89 27t-28 100q0 72 28 99.5t89 27.5q60 0 88.5 -27.5t28.5 -99.5zM87 444q0 -43 8.5 -56.5t33.5 -13.5q23 0 32.5 12.5t9.5 52.5t-9.5 52.5t-32.5 12.5t-32.5 -12.5t-9.5 -47.5zM508 116
q0 -73 -28.5 -100t-88.5 -27q-61 0 -89 27t-28 100q0 72 28 99.5t89 27.5q60 0 88.5 -27.5t28.5 -99.5zM349 121q0 -43 8.5 -56.5t33.5 -13.5q23 0 32.5 12.5t9.5 52.5t-9.5 52.5t-32.5 12.5t-32.5 -12.5t-9.5 -47.5z" />
    <glyph glyph-name="acute.smcp" horiz-adv-x="235" 
d="M80 730h108l-76 -120h-67z" />
    <glyph glyph-name="grave.smcp" horiz-adv-x="235" 
d="M188 610h-67l-76 120h108z" />
    <glyph glyph-name="circumflex.smcp" horiz-adv-x="315" 
d="M276 610h-71l-47 62l-46 -62h-71l57 120h120z" />
    <glyph glyph-name="dieresis.smcp" horiz-adv-x="370" 
d="M59 707h91v-91h-91v91zM214 707h92v-91h-92v91z" />
    <glyph glyph-name="tilde.smcp" horiz-adv-x="400" 
d="M254 679q34 0 34 37h63q0 -60 -21.5 -85.5t-65.5 -25.5q-21 0 -36 7t-27.5 16t-25 16t-28.5 7q-34 0 -34 -37h-64q0 62 22 86.5t65 24.5q22 0 37 -7t27.5 -16t25 -16t28.5 -7z" />
    <glyph glyph-name="caron.smcp" horiz-adv-x="337" 
d="M230 610h-120l-57 120h71l46 -63l47 63h71z" />
    <glyph glyph-name="ring.smcp" horiz-adv-x="300" 
d="M150 777q50 0 77.5 -22t27.5 -67t-27.5 -67.5t-77.5 -22.5q-49 0 -76.5 22.5t-27.5 67.5t27.5 67t76.5 22zM150 649q43 0 43 39q0 38 -43 38t-43 -38q0 -39 43 -39z" />
    <glyph glyph-name="breve.smcp" horiz-adv-x="324" 
d="M162 598q-61 0 -91.5 33.5t-30.5 96.5h66q0 -62 56 -62q57 0 57 62h66q0 -63 -30.5 -96.5t-92.5 -33.5z" />
    <glyph glyph-name="macron.smcp" horiz-adv-x="370" 
d="M63 690h243v-71h-243v71z" />
    <glyph glyph-name="dotaccent.smcp" horiz-adv-x="208" 
d="M56 708h93v-92h-93v92z" />
    <glyph glyph-name="hungarumlaut.smcp" horiz-adv-x="384" 
d="M76 730h100l-53 -120h-66zM230 730h101l-76 -120h-67z" />
    <glyph glyph-name="aacute.smcp" horiz-adv-x="492" 
d="M335 111h-178l-28 -111h-109l157 556h138l157 -556h-109zM180 203h132l-65 259h-2zM250 730h108l-76 -120h-67z" />
    <glyph glyph-name="agrave.smcp" horiz-adv-x="492" 
d="M335 111h-178l-28 -111h-109l157 556h138l157 -556h-109zM180 203h132l-65 259h-2zM285 610h-67l-76 120h108z" />
    <glyph glyph-name="acircumflex.smcp" horiz-adv-x="492" 
d="M335 111h-178l-28 -111h-109l157 556h138l157 -556h-109zM180 203h132l-65 259h-2zM364 610h-71l-47 62l-46 -62h-71l57 120h120z" />
    <glyph glyph-name="adieresis.smcp" horiz-adv-x="492" 
d="M335 111h-178l-28 -111h-109l157 556h138l157 -556h-109zM180 203h132l-65 259h-2zM123 707h91v-91h-91v91zM278 707h92v-91h-92v91z" />
    <glyph glyph-name="atilde.smcp" horiz-adv-x="492" 
d="M335 111h-178l-28 -111h-109l157 556h138l157 -556h-109zM180 203h132l-65 259h-2zM300 679q34 0 34 37h63q0 -60 -21.5 -85.5t-65.5 -25.5q-21 0 -36 7t-27.5 16t-25 16t-28.5 7q-34 0 -34 -37h-64q0 62 22 86.5t65 24.5q22 0 37 -7t27.5 -16t25 -16t28.5 -7z" />
    <glyph glyph-name="aring.smcp" horiz-adv-x="492" 
d="M335 111h-178l-28 -111h-109l157 556h138l157 -556h-109zM180 203h132l-65 259h-2zM246 777q50 0 77.5 -22t27.5 -67t-27.5 -67.5t-77.5 -22.5q-49 0 -76.5 22.5t-27.5 67.5t27.5 67t76.5 22zM246 649q43 0 43 39q0 38 -43 38t-43 -38q0 -39 43 -39z" />
    <glyph glyph-name="amacron.smcp" horiz-adv-x="492" 
d="M335 111h-178l-28 -111h-109l157 556h138l157 -556h-109zM180 203h132l-65 259h-2zM124 690h243v-71h-243v71z" />
    <glyph glyph-name="abreve.smcp" horiz-adv-x="492" 
d="M335 111h-178l-28 -111h-109l157 556h138l157 -556h-109zM180 203h132l-65 259h-2zM246 598q-61 0 -91.5 33.5t-30.5 96.5h66q0 -62 56 -62q57 0 57 62h66q0 -63 -30.5 -96.5t-92.5 -33.5z" />
    <glyph glyph-name="aogonek.smcp" horiz-adv-x="492" 
d="M335 111h-178l-28 -111h-109l157 556h138l157 -556q-50 -36 -50 -76q0 -16 10 -23t26 -7h14v-65h-50q-38 0 -59.5 17t-21.5 53q0 28 16 54.5t46 46.5h-40zM180 203h132l-65 259h-2z" />
    <glyph glyph-name="ae.smcp" horiz-adv-x="765" 
d="M682 236h-211v-146h244v-90h-352v111h-178l-56 -111h-109l287 556h408v-90h-244v-142h211v-88zM231 203h132v263h-2z" />
    <glyph glyph-name="bdotaccent.smcp" horiz-adv-x="509" 
d="M60 556h210q97 0 138.5 -39t41.5 -107q0 -47 -21.5 -78.5t-59.5 -48.5q53 -17 76.5 -50.5t23.5 -83.5q0 -78 -45 -113.5t-148 -35.5h-216v556zM168 236v-146h107q50 0 68 18t18 55q0 36 -17.5 54.5t-64.5 18.5h-111zM168 324h104q42 0 57 19t15 54t-17.5 52t-62.5 17h-96
v-142zM207 708h93v-92h-93v92z" />
    <glyph glyph-name="cacute.smcp" horiz-adv-x="488" 
d="M247 81q55 0 74 22t19 69h108q0 -42 -10 -75.5t-33 -57.5t-62 -37t-96 -13q-52 0 -90.5 11t-64.5 35t-39 63t-13 95v170q0 108 49.5 156t157.5 48q57 0 96 -13t62 -36.5t33 -57.5t10 -76h-108q0 46 -19 68.5t-74 22.5q-33 0 -52.5 -7.5t-30 -22t-13.5 -35t-3 -46.5v-172
q0 -27 3 -47.5t13.5 -34.5t30 -21.5t52.5 -7.5zM253 730h108l-76 -120h-67z" />
    <glyph glyph-name="ccircumflex.smcp" horiz-adv-x="488" 
d="M247 81q55 0 74 22t19 69h108q0 -42 -10 -75.5t-33 -57.5t-62 -37t-96 -13q-52 0 -90.5 11t-64.5 35t-39 63t-13 95v170q0 108 49.5 156t157.5 48q57 0 96 -13t62 -36.5t33 -57.5t10 -76h-108q0 46 -19 68.5t-74 22.5q-33 0 -52.5 -7.5t-30 -22t-13.5 -35t-3 -46.5v-172
q0 -27 3 -47.5t13.5 -34.5t30 -21.5t52.5 -7.5zM364 610h-71l-47 62l-46 -62h-71l57 120h120z" />
    <glyph glyph-name="ccaron.smcp" horiz-adv-x="488" 
d="M247 81q55 0 74 22t19 69h108q0 -42 -10 -75.5t-33 -57.5t-62 -37t-96 -13q-52 0 -90.5 11t-64.5 35t-39 63t-13 95v170q0 108 49.5 156t157.5 48q57 0 96 -13t62 -36.5t33 -57.5t10 -76h-108q0 46 -19 68.5t-74 22.5q-33 0 -52.5 -7.5t-30 -22t-13.5 -35t-3 -46.5v-172
q0 -27 3 -47.5t13.5 -34.5t30 -21.5t52.5 -7.5zM308 610h-120l-57 120h71l46 -63l47 63h71z" />
    <glyph glyph-name="ccedilla.smcp" horiz-adv-x="488" 
d="M247 81q55 0 74 22t19 69h108q0 -41 -9 -73.5t-31 -56.5t-57.5 -37.5t-88.5 -15.5l-10 -35q29 -5 48 -20.5t19 -49.5q0 -42 -26.5 -57.5t-76.5 -15.5h-58v43h57q25 0 33.5 8.5t8.5 21.5q0 14 -8.5 22t-33.5 8h-20l23 76q-89 6 -133.5 52.5t-44.5 150.5v170
q0 108 49.5 156t157.5 48q57 0 96 -13t62 -36.5t33 -57.5t10 -76h-108q0 46 -19 68.5t-74 22.5q-33 0 -52.5 -7.5t-30 -22t-13.5 -35t-3 -46.5v-172q0 -27 3 -47.5t13.5 -34.5t30 -21.5t52.5 -7.5z" />
    <glyph glyph-name="cdotaccent.smcp" horiz-adv-x="488" 
d="M247 81q55 0 74 22t19 69h108q0 -42 -10 -75.5t-33 -57.5t-62 -37t-96 -13q-52 0 -90.5 11t-64.5 35t-39 63t-13 95v170q0 108 49.5 156t157.5 48q57 0 96 -13t62 -36.5t33 -57.5t10 -76h-108q0 46 -19 68.5t-74 22.5q-33 0 -52.5 -7.5t-30 -22t-13.5 -35t-3 -46.5v-172
q0 -27 3 -47.5t13.5 -34.5t30 -21.5t52.5 -7.5zM201 708h93v-92h-93v92z" />
    <glyph glyph-name="dcaron.smcp" horiz-adv-x="527" 
d="M60 0v556h210q53 0 92 -9.5t64.5 -32t38 -61t12.5 -95.5v-159q0 -57 -12.5 -95.5t-38 -61.5t-64.5 -32.5t-92 -9.5h-210zM260 90q31 0 52 5.5t34 18t18 33t5 51.5v159q0 31 -5 51.5t-18 33.5t-34 18.5t-52 5.5h-92v-376h92zM313 610h-120l-57 120h71l46 -63l47 63h71z
" />
    <glyph glyph-name="ddotaccent.smcp" horiz-adv-x="527" 
d="M60 0v556h210q53 0 92 -9.5t64.5 -32t38 -61t12.5 -95.5v-159q0 -57 -12.5 -95.5t-38 -61.5t-64.5 -32.5t-92 -9.5h-210zM260 90q31 0 52 5.5t34 18t18 33t5 51.5v159q0 31 -5 51.5t-18 33.5t-34 18.5t-52 5.5h-92v-376h92zM206 708h93v-92h-93v92z" />
    <glyph glyph-name="dcroat.smcp" horiz-adv-x="535" 
d="M68 0v244h-53v71h53v241h210q53 0 92 -9.5t64.5 -32t38 -61t12.5 -95.5v-159q0 -57 -12.5 -95.5t-38 -61.5t-64.5 -32.5t-92 -9.5h-210zM268 90q31 0 52 5.5t34 18t18 33t5 51.5v159q0 31 -5 51.5t-18 33.5t-34 18.5t-52 5.5h-92v-151h77v-71h-77v-154h92z" />
    <glyph glyph-name="eth.smcp" horiz-adv-x="535" 
d="M68 0v244h-53v71h53v241h210q53 0 92 -9.5t64.5 -32t38 -61t12.5 -95.5v-159q0 -57 -12.5 -95.5t-38 -61.5t-64.5 -32.5t-92 -9.5h-210zM268 90q31 0 52 5.5t34 18t18 33t5 51.5v159q0 31 -5 51.5t-18 33.5t-34 18.5t-52 5.5h-92v-151h77v-71h-77v-154h92z" />
    <glyph glyph-name="eacute.smcp" horiz-adv-x="462" 
d="M379 236h-211v-146h244v-90h-352v556h352v-90h-244v-142h211v-88zM244 730h108l-76 -120h-67z" />
    <glyph glyph-name="egrave.smcp" horiz-adv-x="462" 
d="M379 236h-211v-146h244v-90h-352v556h352v-90h-244v-142h211v-88zM281 610h-67l-76 120h108z" />
    <glyph glyph-name="ecircumflex.smcp" horiz-adv-x="462" 
d="M379 236h-211v-146h244v-90h-352v556h352v-90h-244v-142h211v-88zM359 610h-71l-47 62l-46 -62h-71l57 120h120z" />
    <glyph glyph-name="edieresis.smcp" horiz-adv-x="462" 
d="M379 236h-211v-146h244v-90h-352v556h352v-90h-244v-142h211v-88zM118 707h91v-91h-91v91zM273 707h92v-91h-92v91z" />
    <glyph glyph-name="ecaron.smcp" horiz-adv-x="462" 
d="M379 236h-211v-146h244v-90h-352v556h352v-90h-244v-142h211v-88zM301 610h-120l-57 120h71l46 -63l47 63h71z" />
    <glyph glyph-name="emacron.smcp" horiz-adv-x="462" 
d="M379 236h-211v-146h244v-90h-352v556h352v-90h-244v-142h211v-88zM119 690h243v-71h-243v71z" />
    <glyph glyph-name="ebreve.smcp" horiz-adv-x="462" 
d="M379 236h-211v-146h244v-90h-352v556h352v-90h-244v-142h211v-88zM240 598q-61 0 -91.5 33.5t-30.5 96.5h66q0 -62 56 -62q57 0 57 62h66q0 -63 -30.5 -96.5t-92.5 -33.5z" />
    <glyph glyph-name="eogonek.smcp" horiz-adv-x="462" 
d="M412 -171h-50q-38 0 -59.5 17t-21.5 53q0 28 16 54.5t46 46.5h-283v556h352v-90h-244v-142h211v-88h-211v-146h244v-90q-50 -36 -50 -76q0 -16 10 -23t26 -7h14v-65z" />
    <glyph glyph-name="edotaccent.smcp" horiz-adv-x="462" 
d="M379 236h-211v-146h244v-90h-352v556h352v-90h-244v-142h211v-88zM189 708h93v-92h-93v92z" />
    <glyph glyph-name="fdotaccent.smcp" horiz-adv-x="434" 
d="M361 236h-193v-236h-108v556h334v-90h-226v-142h193v-88zM180 708h93v-92h-93v92z" />
    <glyph glyph-name="gcircumflex.smcp" horiz-adv-x="522" 
d="M259 -11q-52 0 -91 11t-65.5 35t-39.5 63t-13 95v174q0 107 51 153.5t158 46.5q57 0 95.5 -13t62 -36.5t33 -57.5t9.5 -76h-108q0 43 -19.5 68t-72.5 25q-59 0 -80 -28.5t-21 -81.5v-175q0 -27 3.5 -48t14.5 -35.5t30.5 -22t52.5 -7.5q31 0 51 6.5t30.5 17t14.5 24.5
t4 29v76h-99v90h207v-322h-48l-16 46q-20 -23 -52.5 -40t-91.5 -17zM379 610h-71l-47 62l-46 -62h-71l57 120h120z" />
    <glyph glyph-name="gbreve.smcp" horiz-adv-x="522" 
d="M259 -11q-52 0 -91 11t-65.5 35t-39.5 63t-13 95v174q0 107 51 153.5t158 46.5q57 0 95.5 -13t62 -36.5t33 -57.5t9.5 -76h-108q0 43 -19.5 68t-72.5 25q-59 0 -80 -28.5t-21 -81.5v-175q0 -27 3.5 -48t14.5 -35.5t30.5 -22t52.5 -7.5q31 0 51 6.5t30.5 17t14.5 24.5
t4 29v76h-99v90h207v-322h-48l-16 46q-20 -23 -52.5 -40t-91.5 -17zM261 598q-61 0 -91.5 33.5t-30.5 96.5h66q0 -62 56 -62q57 0 57 62h66q0 -63 -30.5 -96.5t-92.5 -33.5z" />
    <glyph glyph-name="gdotaccent.smcp" horiz-adv-x="522" 
d="M259 -11q-52 0 -91 11t-65.5 35t-39.5 63t-13 95v174q0 107 51 153.5t158 46.5q57 0 95.5 -13t62 -36.5t33 -57.5t9.5 -76h-108q0 43 -19.5 68t-72.5 25q-59 0 -80 -28.5t-21 -81.5v-175q0 -27 3.5 -48t14.5 -35.5t30.5 -22t52.5 -7.5q31 0 51 6.5t30.5 17t14.5 24.5
t4 29v76h-99v90h207v-322h-48l-16 46q-20 -23 -52.5 -40t-91.5 -17zM214 708h93v-92h-93v92z" />
    <glyph glyph-name="gcommaaccent.smcp" horiz-adv-x="522" 
d="M259 -11q-52 0 -91 11t-65.5 35t-39.5 63t-13 95v174q0 107 51 153.5t158 46.5q57 0 95.5 -13t62 -36.5t33 -57.5t9.5 -76h-108q0 43 -19.5 68t-72.5 25q-59 0 -80 -28.5t-21 -81.5v-175q0 -27 3.5 -48t14.5 -35.5t30.5 -22t52.5 -7.5q31 0 51 6.5t30.5 17t14.5 24.5
t4 29v76h-99v90h207v-322h-48l-16 46q-20 -23 -52.5 -40t-91.5 -17zM212 -60h109l-66 -130h-75z" />
    <glyph glyph-name="hcircumflex.smcp" horiz-adv-x="524" 
d="M464 0h-108v236h-188v-236h-108v556h108v-232h188v232h108v-556zM380 610h-71l-47 62l-46 -62h-71l57 120h120z" />
    <glyph glyph-name="hbar.smcp" horiz-adv-x="526" 
d="M10 475h51v81h108v-81h188v81h108v-81h51v-63h-51v-412h-108v236h-188v-236h-108v412h-51v63zM357 324v88h-188v-88h188z" />
    <glyph glyph-name="iacute.smcp" 
d="M60 556h108v-556h-108v556zM115 730h108l-76 -120h-67z" />
    <glyph glyph-name="igrave.smcp" 
d="M60 556h108v-556h-108v556zM148 610h-67l-76 120h108z" />
    <glyph glyph-name="icircumflex.smcp" 
d="M60 556h108v-556h-108v556zM233 610h-71l-47 62l-46 -62h-71l57 120h120z" />
    <glyph glyph-name="idieresis.smcp" 
d="M60 556h108v-556h-108v556zM-8 707h91v-91h-91v91zM147 707h92v-91h-92v91z" />
    <glyph glyph-name="itilde.smcp" 
d="M168 590q-21 0 -35 7t-25 15.5t-20.5 15.5t-21.5 7q-22 0 -22 -37h-59q0 60 16.5 85t57.5 25q21 0 34.5 -7t24 -15.5t20.5 -15.5t22 -7t18 8.5t6 28.5h58q0 -60 -17 -85t-57 -25zM60 556h108v-556h-108v556z" />
    <glyph glyph-name="imacron.smcp" 
d="M9 690h210v-76h-210v76zM60 556h108v-556h-108v556z" />
    <glyph glyph-name="ibreve.smcp" 
d="M60 556h108v-556h-108v556zM116 598q-61 0 -91.5 33.5t-30.5 96.5h66q0 -62 56 -62q57 0 57 62h66q0 -63 -30.5 -96.5t-92.5 -33.5z" />
    <glyph glyph-name="iogonek.smcp" 
d="M60 556h108v-556q-50 -36 -50 -76q0 -16 10 -23t26 -7h14v-65h-50q-38 0 -59.5 17t-21.5 53q0 28 16 54.5t46 46.5h-39v556z" />
    <glyph glyph-name="jcircumflex.smcp" horiz-adv-x="335" 
d="M77 466v90h198v-429q0 -74 -33.5 -106t-103.5 -32q-26 0 -52 3t-46 8v90q23 -5 39.5 -7.5t35.5 -2.5q29 0 40.5 12.5t11.5 48.5v325h-90zM285 610h-71l-47 62l-46 -62h-71l57 120h120z" />
    <glyph glyph-name="kcommaaccent.smcp" horiz-adv-x="458" 
d="M168 0h-108v556h108v-225l148 225h129l-192 -268l195 -288h-128l-152 240v-240zM180 -60h109l-66 -130h-75z" />
    <glyph glyph-name="lacute.smcp" horiz-adv-x="389" 
d="M60 556h108v-466h181v-90h-289v556zM119 730h108l-76 -120h-67z" />
    <glyph glyph-name="lcaron.smcp" horiz-adv-x="389" 
d="M220 576h87l-29 -200h-58v200zM60 556h108v-466h181v-90h-289v556z" />
    <glyph glyph-name="lcommaaccent.smcp" horiz-adv-x="389" 
d="M60 556h108v-466h181v-90h-289v556zM146 -60h109l-66 -130h-75z" />
    <glyph glyph-name="ldot.smcp" horiz-adv-x="389" 
d="M221 340h96v-96h-96v96zM60 556h108v-466h181v-90h-289v556z" />
    <glyph glyph-name="lslash.smcp" horiz-adv-x="394" 
d="M65 208l-61 -23v71l61 24v276h108v-236l101 40v-72l-101 -40v-158h181v-90h-289v208z" />
    <glyph glyph-name="mdotaccent.smcp" horiz-adv-x="668" 
d="M333 138h2l120 418h153v-556h-105v428l-125 -428h-89l-124 428v-428h-105v556h153zM287 708h93v-92h-93v92z" />
    <glyph glyph-name="nacute.smcp" horiz-adv-x="535" 
d="M475 0h-138l-178 417q2 -35 3 -72t1 -78v-267h-103v556h138l179 -417q-2 42 -3.5 87t-1.5 87v243h103v-556zM273 730h108l-76 -120h-67z" />
    <glyph glyph-name="ntilde.smcp" horiz-adv-x="535" 
d="M475 0h-138l-178 417q2 -35 3 -72t1 -78v-267h-103v556h138l179 -417q-2 42 -3.5 87t-1.5 87v243h103v-556zM321 679q34 0 34 37h63q0 -60 -21.5 -85.5t-65.5 -25.5q-21 0 -36 7t-27.5 16t-25 16t-28.5 7q-34 0 -34 -37h-64q0 62 22 86.5t65 24.5q22 0 37 -7t27.5 -16
t25 -16t28.5 -7z" />
    <glyph glyph-name="ncaron.smcp" horiz-adv-x="535" 
d="M475 0h-138l-178 417q2 -35 3 -72t1 -78v-267h-103v556h138l179 -417q-2 42 -3.5 87t-1.5 87v243h103v-556zM327 610h-120l-57 120h71l46 -63l47 63h71z" />
    <glyph glyph-name="ncommaaccent.smcp" horiz-adv-x="535" 
d="M475 0h-138l-178 417q2 -35 3 -72t1 -78v-267h-103v556h138l179 -417q-2 42 -3.5 87t-1.5 87v243h103v-556zM219 -60h109l-66 -130h-75z" />
    <glyph glyph-name="eng.smcp" horiz-adv-x="535" 
d="M475 -53q0 -74 -33.5 -106t-103.5 -32q-26 0 -52 3t-46 8v90q23 -5 39.5 -7.5t35.5 -2.5q29 0 40.5 12.5t11.5 48.5l-204 451v-412h-103v556h139l173 -386v386h103v-609z" />
    <glyph glyph-name="oacute.smcp" horiz-adv-x="508" 
d="M360 358q0 35 -6 58t-18.5 36.5t-33 19t-48.5 5.5q-29 0 -49 -5.5t-32.5 -19t-18.5 -36.5t-6 -58v-160q0 -35 6 -58t18.5 -36.5t32.5 -19t49 -5.5q28 0 48.5 5.5t33 19t18.5 36.5t6 58v160zM468 198q0 -59 -13 -98.5t-39.5 -64.5t-67 -35.5t-94.5 -10.5t-94.5 10.5
t-67 35.5t-39.5 64.5t-13 98.5v160q0 58 13 98t39.5 65t67 35.5t94.5 10.5t94.5 -10.5t67 -35.5t39.5 -65t13 -98v-160zM262 730h108l-76 -120h-67z" />
    <glyph glyph-name="ograve.smcp" horiz-adv-x="508" 
d="M360 358q0 35 -6 58t-18.5 36.5t-33 19t-48.5 5.5q-29 0 -49 -5.5t-32.5 -19t-18.5 -36.5t-6 -58v-160q0 -35 6 -58t18.5 -36.5t32.5 -19t49 -5.5q28 0 48.5 5.5t33 19t18.5 36.5t6 58v160zM468 198q0 -59 -13 -98.5t-39.5 -64.5t-67 -35.5t-94.5 -10.5t-94.5 10.5
t-67 35.5t-39.5 64.5t-13 98.5v160q0 58 13 98t39.5 65t67 35.5t94.5 10.5t94.5 -10.5t67 -35.5t39.5 -65t13 -98v-160zM287 610h-67l-76 120h108z" />
    <glyph glyph-name="ocircumflex.smcp" horiz-adv-x="508" 
d="M360 358q0 35 -6 58t-18.5 36.5t-33 19t-48.5 5.5q-29 0 -49 -5.5t-32.5 -19t-18.5 -36.5t-6 -58v-160q0 -35 6 -58t18.5 -36.5t32.5 -19t49 -5.5q28 0 48.5 5.5t33 19t18.5 36.5t6 58v160zM468 198q0 -59 -13 -98.5t-39.5 -64.5t-67 -35.5t-94.5 -10.5t-94.5 10.5
t-67 35.5t-39.5 64.5t-13 98.5v160q0 58 13 98t39.5 65t67 35.5t94.5 10.5t94.5 -10.5t67 -35.5t39.5 -65t13 -98v-160zM372 610h-71l-47 62l-46 -62h-71l57 120h120z" />
    <glyph glyph-name="odieresis.smcp" horiz-adv-x="508" 
d="M360 358q0 35 -6 58t-18.5 36.5t-33 19t-48.5 5.5q-29 0 -49 -5.5t-32.5 -19t-18.5 -36.5t-6 -58v-160q0 -35 6 -58t18.5 -36.5t32.5 -19t49 -5.5q28 0 48.5 5.5t33 19t18.5 36.5t6 58v160zM468 198q0 -59 -13 -98.5t-39.5 -64.5t-67 -35.5t-94.5 -10.5t-94.5 10.5
t-67 35.5t-39.5 64.5t-13 98.5v160q0 58 13 98t39.5 65t67 35.5t94.5 10.5t94.5 -10.5t67 -35.5t39.5 -65t13 -98v-160zM131 707h91v-91h-91v91zM286 707h92v-91h-92v91z" />
    <glyph glyph-name="otilde.smcp" horiz-adv-x="508" 
d="M360 358q0 35 -6 58t-18.5 36.5t-33 19t-48.5 5.5q-29 0 -49 -5.5t-32.5 -19t-18.5 -36.5t-6 -58v-160q0 -35 6 -58t18.5 -36.5t32.5 -19t49 -5.5q28 0 48.5 5.5t33 19t18.5 36.5t6 58v160zM468 198q0 -59 -13 -98.5t-39.5 -64.5t-67 -35.5t-94.5 -10.5t-94.5 10.5
t-67 35.5t-39.5 64.5t-13 98.5v160q0 58 13 98t39.5 65t67 35.5t94.5 10.5t94.5 -10.5t67 -35.5t39.5 -65t13 -98v-160zM308 679q34 0 34 37h63q0 -60 -21.5 -85.5t-65.5 -25.5q-21 0 -36 7t-27.5 16t-25 16t-28.5 7q-34 0 -34 -37h-64q0 62 22 86.5t65 24.5q22 0 37 -7
t27.5 -16t25 -16t28.5 -7z" />
    <glyph glyph-name="obreve.smcp" horiz-adv-x="508" 
d="M360 358q0 35 -6 58t-18.5 36.5t-33 19t-48.5 5.5q-29 0 -49 -5.5t-32.5 -19t-18.5 -36.5t-6 -58v-160q0 -35 6 -58t18.5 -36.5t32.5 -19t49 -5.5q28 0 48.5 5.5t33 19t18.5 36.5t6 58v160zM468 198q0 -59 -13 -98.5t-39.5 -64.5t-67 -35.5t-94.5 -10.5t-94.5 10.5
t-67 35.5t-39.5 64.5t-13 98.5v160q0 58 13 98t39.5 65t67 35.5t94.5 10.5t94.5 -10.5t67 -35.5t39.5 -65t13 -98v-160zM254 598q-61 0 -91.5 33.5t-30.5 96.5h66q0 -62 56 -62q57 0 57 62h66q0 -63 -30.5 -96.5t-92.5 -33.5z" />
    <glyph glyph-name="omacron.smcp" horiz-adv-x="508" 
d="M360 358q0 35 -6 58t-18.5 36.5t-33 19t-48.5 5.5q-29 0 -49 -5.5t-32.5 -19t-18.5 -36.5t-6 -58v-160q0 -35 6 -58t18.5 -36.5t32.5 -19t49 -5.5q28 0 48.5 5.5t33 19t18.5 36.5t6 58v160zM468 198q0 -59 -13 -98.5t-39.5 -64.5t-67 -35.5t-94.5 -10.5t-94.5 10.5
t-67 35.5t-39.5 64.5t-13 98.5v160q0 58 13 98t39.5 65t67 35.5t94.5 10.5t94.5 -10.5t67 -35.5t39.5 -65t13 -98v-160zM132 690h243v-71h-243v71z" />
    <glyph glyph-name="ohungarumlaut.smcp" horiz-adv-x="508" 
d="M360 358q0 35 -6 58t-18.5 36.5t-33 19t-48.5 5.5q-29 0 -49 -5.5t-32.5 -19t-18.5 -36.5t-6 -58v-160q0 -35 6 -58t18.5 -36.5t32.5 -19t49 -5.5q28 0 48.5 5.5t33 19t18.5 36.5t6 58v160zM468 198q0 -59 -13 -98.5t-39.5 -64.5t-67 -35.5t-94.5 -10.5t-94.5 10.5
t-67 35.5t-39.5 64.5t-13 98.5v160q0 58 13 98t39.5 65t67 35.5t94.5 10.5t94.5 -10.5t67 -35.5t39.5 -65t13 -98v-160zM179 730h100l-53 -120h-66zM333 730h101l-76 -120h-67z" />
    <glyph glyph-name="oslash.smcp" horiz-adv-x="508" 
d="M468 198q0 -59 -13 -98.5t-39.5 -64.5t-67 -35.5t-94.5 -10.5q-79 0 -127 22l-19 -31h-76l45 72q-37 49 -37 146v160q0 58 13 98t39.5 65t67 35.5t94.5 10.5q80 0 126 -23l20 32h76l-45 -73q37 -49 37 -145v-160zM148 198v-15t1 -14l179 290q-24 18 -74 18
q-29 0 -49 -5.5t-32.5 -19t-18.5 -36.5t-6 -58v-160zM360 358q0 8 -0.5 14.5t-0.5 13.5l-179 -290q13 -10 31 -13.5t43 -3.5q28 0 48.5 5.5t33 19t18.5 36.5t6 58v160z" />
    <glyph glyph-name="oe.smcp" horiz-adv-x="762" 
d="M254 466q-29 0 -49 -5.5t-32.5 -19t-18.5 -36.5t-6 -58v-138q0 -35 6 -58t18.5 -36.5t32.5 -19t49 -5.5h106v376h-106zM712 556v-90h-244v-142h211v-88h-211v-146h244v-90h-458q-54 0 -94.5 10.5t-67 35.5t-39.5 64.5t-13 98.5v138q0 58 13 98t39.5 65t67 35.5t94.5 10.5
h458z" />
    <glyph glyph-name="thorn.smcp" horiz-adv-x="488" 
d="M168 189h89q55 0 74 23.5t19 66.5t-19 66t-74 23h-89v-179zM257 458q53 0 91 -9.5t62.5 -30.5t36 -55t11.5 -84t-11.5 -84.5t-36 -56t-62.5 -31t-91 -9.5h-89v-98h-108v556h108v-98h89z" />
    <glyph glyph-name="pdotaccent.smcp" horiz-adv-x="488" 
d="M60 556h197q53 0 91 -9t62.5 -30t36 -55t11.5 -84q0 -99 -47 -140t-153 -41h-90v-197h-108v556zM168 285h90q54 0 73 22.5t19 69.5q0 43 -19 66t-74 23h-89v-181zM197 708h93v-92h-93v92z" />
    <glyph glyph-name="racute.smcp" horiz-adv-x="515" 
d="M60 556h197q53 0 91 -9t62.5 -30t36 -55t11.5 -84q0 -70 -23.5 -110.5t-72.5 -57.5l113 -210h-113l-103 197h-91v-197h-108v556zM168 285h90q54 0 73 23t19 70q0 43 -19 65.5t-74 22.5h-89v-181zM245 730h108l-76 -120h-67z" />
    <glyph glyph-name="rcaron.smcp" horiz-adv-x="515" 
d="M60 556h197q53 0 91 -9t62.5 -30t36 -55t11.5 -84q0 -70 -23.5 -110.5t-72.5 -57.5l113 -210h-113l-103 197h-91v-197h-108v556zM168 285h90q54 0 73 23t19 70q0 43 -19 65.5t-74 22.5h-89v-181zM304 610h-120l-57 120h71l46 -63l47 63h71z" />
    <glyph glyph-name="rcommaaccent.smcp" horiz-adv-x="515" 
d="M60 556h197q53 0 91 -9t62.5 -30t36 -55t11.5 -84q0 -70 -23.5 -110.5t-72.5 -57.5l113 -210h-113l-103 197h-91v-197h-108v556zM168 285h90q54 0 73 23t19 70q0 43 -19 65.5t-74 22.5h-89v-181zM209 -60h109l-66 -130h-75z" />
    <glyph glyph-name="sacute.smcp" horiz-adv-x="501" 
d="M250 79q31 0 51 5t31 14t15.5 23t4.5 32q0 21 -4.5 36t-17 25t-34 16.5t-55.5 11.5q-100 13 -145.5 50.5t-45.5 117.5q0 76 50 116.5t147 40.5q104 0 151.5 -41.5t47.5 -128.5h-106q0 14 -3 28t-13 25.5t-28.5 19t-49.5 7.5q-46 0 -68.5 -18.5t-22.5 -52.5
q0 -21 5.5 -35.5t17.5 -24t31.5 -15t48.5 -9.5q64 -8 104 -22t62 -35.5t29.5 -50t7.5 -64.5q0 -75 -50 -118t-161 -43q-57 0 -97 10.5t-65 32t-36.5 54t-11.5 77.5h108q0 -21 4.5 -37t16 -26.5t31 -15.5t50.5 -5zM254 730h108l-76 -120h-67z" />
    <glyph glyph-name="scircumflex.smcp" horiz-adv-x="501" 
d="M250 79q31 0 51 5t31 14t15.5 23t4.5 32q0 21 -4.5 36t-17 25t-34 16.5t-55.5 11.5q-100 13 -145.5 50.5t-45.5 117.5q0 76 50 116.5t147 40.5q104 0 151.5 -41.5t47.5 -128.5h-106q0 14 -3 28t-13 25.5t-28.5 19t-49.5 7.5q-46 0 -68.5 -18.5t-22.5 -52.5
q0 -21 5.5 -35.5t17.5 -24t31.5 -15t48.5 -9.5q64 -8 104 -22t62 -35.5t29.5 -50t7.5 -64.5q0 -75 -50 -118t-161 -43q-57 0 -97 10.5t-65 32t-36.5 54t-11.5 77.5h108q0 -21 4.5 -37t16 -26.5t31 -15.5t50.5 -5zM368 610h-71l-47 62l-46 -62h-71l57 120h120z" />
    <glyph glyph-name="scaron.smcp" horiz-adv-x="501" 
d="M250 79q31 0 51 5t31 14t15.5 23t4.5 32q0 21 -4.5 36t-17 25t-34 16.5t-55.5 11.5q-100 13 -145.5 50.5t-45.5 117.5q0 76 50 116.5t147 40.5q104 0 151.5 -41.5t47.5 -128.5h-106q0 14 -3 28t-13 25.5t-28.5 19t-49.5 7.5q-46 0 -68.5 -18.5t-22.5 -52.5
q0 -21 5.5 -35.5t17.5 -24t31.5 -15t48.5 -9.5q64 -8 104 -22t62 -35.5t29.5 -50t7.5 -64.5q0 -75 -50 -118t-161 -43q-57 0 -97 10.5t-65 32t-36.5 54t-11.5 77.5h108q0 -21 4.5 -37t16 -26.5t31 -15.5t50.5 -5zM310 610h-120l-57 120h71l46 -63l47 63h71z" />
    <glyph glyph-name="sdotaccent.smcp" horiz-adv-x="501" 
d="M250 79q31 0 51 5t31 14t15.5 23t4.5 32q0 21 -4.5 36t-17 25t-34 16.5t-55.5 11.5q-100 13 -145.5 50.5t-45.5 117.5q0 76 50 116.5t147 40.5q104 0 151.5 -41.5t47.5 -128.5h-106q0 14 -3 28t-13 25.5t-28.5 19t-49.5 7.5q-46 0 -68.5 -18.5t-22.5 -52.5
q0 -21 5.5 -35.5t17.5 -24t31.5 -15t48.5 -9.5q64 -8 104 -22t62 -35.5t29.5 -50t7.5 -64.5q0 -75 -50 -118t-161 -43q-57 0 -97 10.5t-65 32t-36.5 54t-11.5 77.5h108q0 -21 4.5 -37t16 -26.5t31 -15.5t50.5 -5zM203 708h93v-92h-93v92z" />
    <glyph glyph-name="scedilla.smcp" horiz-adv-x="501" 
d="M250 79q31 0 51 5t31 14t15.5 23t4.5 32q0 21 -4.5 36t-17 25t-34 16.5t-55.5 11.5q-100 13 -145.5 50.5t-45.5 117.5q0 76 50 116.5t147 40.5q104 0 151.5 -41.5t47.5 -128.5h-106q0 14 -3 28t-13 25.5t-28.5 19t-49.5 7.5q-46 0 -68.5 -18.5t-22.5 -52.5
q0 -21 5.5 -35.5t17.5 -24t31.5 -15t48.5 -9.5q64 -8 104 -22t62 -35.5t29.5 -50t7.5 -64.5q0 -73 -46.5 -115.5t-150.5 -45.5l-10 -35q29 -5 48 -20.5t19 -49.5q0 -42 -26.5 -57.5t-76.5 -15.5h-58v43h57q25 0 33.5 8.5t8.5 21.5q0 14 -8.5 22t-33.5 8h-20l23 76
q-98 5 -139 47.5t-41 125.5h108q0 -21 4.5 -37t16 -26.5t31 -15.5t50.5 -5z" />
    <glyph glyph-name="scommaaccent.smcp" horiz-adv-x="501" 
d="M250 79q31 0 51 5t31 14t15.5 23t4.5 32q0 21 -4.5 36t-17 25t-34 16.5t-55.5 11.5q-100 13 -145.5 50.5t-45.5 117.5q0 76 50 116.5t147 40.5q104 0 151.5 -41.5t47.5 -128.5h-106q0 14 -3 28t-13 25.5t-28.5 19t-49.5 7.5q-46 0 -68.5 -18.5t-22.5 -52.5
q0 -21 5.5 -35.5t17.5 -24t31.5 -15t48.5 -9.5q64 -8 104 -22t62 -35.5t29.5 -50t7.5 -64.5q0 -75 -50 -118t-161 -43q-57 0 -97 10.5t-65 32t-36.5 54t-11.5 77.5h108q0 -21 4.5 -37t16 -26.5t31 -15.5t50.5 -5zM192 -60h109l-66 -130h-75z" />
    <glyph glyph-name="germandbls.smcp" horiz-adv-x="1002" 
d="M250 79q31 0 51 5t31 14t15.5 23t4.5 32q0 21 -4.5 36t-17 25t-34 16.5t-55.5 11.5q-100 13 -145.5 50.5t-45.5 117.5q0 76 50 116.5t147 40.5q104 0 151.5 -41.5t47.5 -128.5h-106q0 14 -3 28t-13 25.5t-28.5 19t-49.5 7.5q-46 0 -68.5 -18.5t-22.5 -52.5
q0 -21 5.5 -35.5t17.5 -24t31.5 -15t48.5 -9.5q64 -8 104 -22t62 -35.5t29.5 -50t7.5 -64.5q0 -75 -50 -118t-161 -43q-57 0 -97 10.5t-65 32t-36.5 54t-11.5 77.5h108q0 -21 4.5 -37t16 -26.5t31 -15.5t50.5 -5zM751 79q31 0 51 5t31 14t15.5 23t4.5 32q0 21 -4.5 36
t-17 25t-34 16.5t-55.5 11.5q-100 13 -145.5 50.5t-45.5 117.5q0 76 50 116.5t147 40.5q104 0 151.5 -41.5t47.5 -128.5h-106q0 14 -3 28t-13 25.5t-28.5 19t-49.5 7.5q-46 0 -68.5 -18.5t-22.5 -52.5q0 -21 5.5 -35.5t17.5 -24t31.5 -15t48.5 -9.5q64 -8 104 -22t62 -35.5
t29.5 -50t7.5 -64.5q0 -75 -50 -118t-161 -43q-57 0 -97 10.5t-65 32t-36.5 54t-11.5 77.5h108q0 -21 4.5 -37t16 -26.5t31 -15.5t50.5 -5z" />
    <glyph glyph-name="tcaron.smcp" horiz-adv-x="432" 
d="M162 466h-137v90h382v-90h-137v-466h-108v466zM276 610h-120l-57 120h71l46 -63l47 63h71z" />
    <glyph glyph-name="tdotaccent.smcp" horiz-adv-x="432" 
d="M162 466h-137v90h382v-90h-137v-466h-108v466zM169 708h93v-92h-93v92z" />
    <glyph glyph-name="tcommaaccent.smcp" horiz-adv-x="432" 
d="M162 466h-137v90h382v-90h-137v-466h-108v466zM160 -60h109l-66 -130h-75z" />
    <glyph glyph-name="tbar.smcp" horiz-adv-x="432" 
d="M78 289h84v177h-137v90h382v-90h-137v-177h84v-69h-84v-220h-108v220h-84v69z" />
    <glyph glyph-name="uacute.smcp" horiz-adv-x="524" 
d="M163 556v-379q0 -55 21.5 -76t77.5 -21t77.5 21t21.5 76v379h108v-379q0 -53 -14.5 -89t-41 -58t-65 -31.5t-86.5 -9.5t-86.5 9.5t-65 31.5t-41 58t-14.5 89v379h108zM266 730h108l-76 -120h-67z" />
    <glyph glyph-name="ugrave.smcp" horiz-adv-x="524" 
d="M163 556v-379q0 -55 21.5 -76t77.5 -21t77.5 21t21.5 76v379h108v-379q0 -53 -14.5 -89t-41 -58t-65 -31.5t-86.5 -9.5t-86.5 9.5t-65 31.5t-41 58t-14.5 89v379h108zM300 610h-67l-76 120h108z" />
    <glyph glyph-name="ucircumflex.smcp" horiz-adv-x="524" 
d="M163 556v-379q0 -55 21.5 -76t77.5 -21t77.5 21t21.5 76v379h108v-379q0 -53 -14.5 -89t-41 -58t-65 -31.5t-86.5 -9.5t-86.5 9.5t-65 31.5t-41 58t-14.5 89v379h108zM380 610h-71l-47 62l-46 -62h-71l57 120h120z" />
    <glyph glyph-name="udieresis.smcp" horiz-adv-x="524" 
d="M163 556v-379q0 -55 21.5 -76t77.5 -21t77.5 21t21.5 76v379h108v-379q0 -53 -14.5 -89t-41 -58t-65 -31.5t-86.5 -9.5t-86.5 9.5t-65 31.5t-41 58t-14.5 89v379h108zM139 707h91v-91h-91v91zM294 707h92v-91h-92v91z" />
    <glyph glyph-name="utilde.smcp" horiz-adv-x="524" 
d="M163 556v-379q0 -55 21.5 -76t77.5 -21t77.5 21t21.5 76v379h108v-379q0 -53 -14.5 -89t-41 -58t-65 -31.5t-86.5 -9.5t-86.5 9.5t-65 31.5t-41 58t-14.5 89v379h108zM316 679q34 0 34 37h63q0 -60 -21.5 -85.5t-65.5 -25.5q-21 0 -36 7t-27.5 16t-25 16t-28.5 7
q-34 0 -34 -37h-64q0 62 22 86.5t65 24.5q22 0 37 -7t27.5 -16t25 -16t28.5 -7z" />
    <glyph glyph-name="uring.smcp" horiz-adv-x="524" 
d="M163 556v-379q0 -55 21.5 -76t77.5 -21t77.5 21t21.5 76v379h108v-379q0 -53 -14.5 -89t-41 -58t-65 -31.5t-86.5 -9.5t-86.5 9.5t-65 31.5t-41 58t-14.5 89v379h108zM262 777q50 0 77.5 -22t27.5 -67t-27.5 -67.5t-77.5 -22.5q-49 0 -76.5 22.5t-27.5 67.5t27.5 67
t76.5 22zM262 649q43 0 43 39q0 38 -43 38t-43 -38q0 -39 43 -39z" />
    <glyph glyph-name="ubreve.smcp" horiz-adv-x="524" 
d="M163 556v-379q0 -55 21.5 -76t77.5 -21t77.5 21t21.5 76v379h108v-379q0 -53 -14.5 -89t-41 -58t-65 -31.5t-86.5 -9.5t-86.5 9.5t-65 31.5t-41 58t-14.5 89v379h108zM262 598q-61 0 -91.5 33.5t-30.5 96.5h66q0 -62 56 -62q57 0 57 62h66q0 -63 -30.5 -96.5t-92.5 -33.5
z" />
    <glyph glyph-name="umacron.smcp" horiz-adv-x="524" 
d="M163 556v-379q0 -55 21.5 -76t77.5 -21t77.5 21t21.5 76v379h108v-379q0 -53 -14.5 -89t-41 -58t-65 -31.5t-86.5 -9.5t-86.5 9.5t-65 31.5t-41 58t-14.5 89v379h108zM140 690h243v-71h-243v71z" />
    <glyph glyph-name="uhungarumlaut.smcp" horiz-adv-x="524" 
d="M163 556v-379q0 -55 21.5 -76t77.5 -21t77.5 21t21.5 76v379h108v-379q0 -53 -14.5 -89t-41 -58t-65 -31.5t-86.5 -9.5t-86.5 9.5t-65 31.5t-41 58t-14.5 89v379h108zM184 730h100l-53 -120h-66zM338 730h101l-76 -120h-67z" />
    <glyph glyph-name="uogonek.smcp" horiz-adv-x="524" 
d="M348 -171h-50q-38 0 -59.5 17t-21.5 53q0 24 12 47.5t35 42.5h-2q-48 0 -86.5 9.5t-65 31.5t-41 58t-14.5 89v379h108v-379q0 -55 21.5 -76t77.5 -21t77.5 21t21.5 76v379h108v-379q0 -81 -32.5 -123t-92.5 -56q-46 -34 -46 -74q0 -16 10 -23t26 -7h14v-65z" />
    <glyph glyph-name="wacute.smcp" horiz-adv-x="774" 
d="M453 556l87 -433h2l87 433h110l-133 -556h-129l-90 450l-90 -450h-129l-133 556h110l87 -433h2l87 433h132zM390 730h108l-76 -120h-67z" />
    <glyph glyph-name="wgrave.smcp" horiz-adv-x="774" 
d="M453 556l87 -433h2l87 433h110l-133 -556h-129l-90 450l-90 -450h-129l-133 556h110l87 -433h2l87 433h132zM423 610h-67l-76 120h108z" />
    <glyph glyph-name="wcircumflex.smcp" horiz-adv-x="774" 
d="M453 556l87 -433h2l87 433h110l-133 -556h-129l-90 450l-90 -450h-129l-133 556h110l87 -433h2l87 433h132zM505 610h-71l-47 62l-46 -62h-71l57 120h120z" />
    <glyph glyph-name="wdieresis.smcp" horiz-adv-x="774" 
d="M453 556l87 -433h2l87 433h110l-133 -556h-129l-90 450l-90 -450h-129l-133 556h110l87 -433h2l87 433h132zM264 707h91v-91h-91v91zM419 707h92v-91h-92v91z" />
    <glyph glyph-name="yacute.smcp" horiz-adv-x="440" 
d="M166 205l-156 351h113l96 -246h2l96 246h113l-156 -351v-205h-108v205zM219 730h108l-76 -120h-67z" />
    <glyph glyph-name="ygrave.smcp" horiz-adv-x="440" 
d="M166 205l-156 351h113l96 -246h2l96 246h113l-156 -351v-205h-108v205zM253 610h-67l-76 120h108z" />
    <glyph glyph-name="ycircumflex.smcp" horiz-adv-x="440" 
d="M166 205l-156 351h113l96 -246h2l96 246h113l-156 -351v-205h-108v205zM338 610h-71l-47 62l-46 -62h-71l57 120h120z" />
    <glyph glyph-name="ydieresis.smcp" horiz-adv-x="440" 
d="M166 205l-156 351h113l96 -246h2l96 246h113l-156 -351v-205h-108v205zM97 707h91v-91h-91v91zM252 707h92v-91h-92v91z" />
    <glyph glyph-name="zacute.smcp" horiz-adv-x="458" 
d="M49 556h359v-74l-242 -392h252v-90h-378v72l243 394h-234v90zM222 730h108l-76 -120h-67z" />
    <glyph glyph-name="zcaron.smcp" horiz-adv-x="458" 
d="M49 556h359v-74l-242 -392h252v-90h-378v72l243 394h-234v90zM289 610h-120l-57 120h71l46 -63l47 63h71z" />
    <glyph glyph-name="zdotaccent.smcp" horiz-adv-x="458" 
d="M49 556h359v-74l-242 -392h252v-90h-378v72l243 394h-234v90zM182 708h93v-92h-93v92z" />
    </font>
</defs>
</svg>
