<?xml version="1.0" standalone="no"?>
<!DOCTYPE svg PUBLIC "-//W3C//DTD SVG 1.1//EN" "http://www.w3.org/Graphics/SVG/1.1/DTD/svg11.dtd" >
<svg xmlns="http://www.w3.org/2000/svg" xmlns:xlink="http://www.w3.org/1999/xlink" version="1.1">
<metadata>
Created by FontForge 20160405 at Tue Jul 12 19:59:23 2016
 By www-data
Copyright (c) 2007 by Silas Dilworth. All rights reserved.
</metadata>
<defs>
<font id="BreuerText-Bold" horiz-adv-x="540" >
  <font-face 
    font-family="Breuer Text"
    font-weight="700"
    font-stretch="normal"
    units-per-em="1000"
    panose-1="2 0 8 6 4 0 0 2 0 4"
    ascent="750"
    descent="-250"
    x-height="500"
    cap-height="650"
    bbox="-40 -201 988 893"
    underline-thickness="50"
    underline-position="-100"
    stemh="110"
    stemv="136"
    unicode-range="U+0020-2265"
  />
<missing-glyph horiz-adv-x="450" 
d="M50 0v650h350v-650h-350zM241 325l129 -285v570zM208 325l-128 285v-570zM109 620l116 -259l116 259h-232zM225 288l-116 -258h232z" />
    <glyph glyph-name=".notdef" horiz-adv-x="450" 
d="M50 0v650h350v-650h-350zM241 325l129 -285v570zM208 325l-128 285v-570zM109 620l116 -259l116 259h-232zM225 288l-116 -258h232z" />
    <glyph glyph-name=".null" horiz-adv-x="0" 
 />
    <glyph glyph-name="CR" horiz-adv-x="0" 
 />
    <glyph glyph-name="space" unicode=" " horiz-adv-x="230" 
 />
    <glyph glyph-name="nbspace" unicode="&#xa0;" horiz-adv-x="115" 
 />
    <glyph glyph-name="A" unicode="A" horiz-adv-x="537" 
d="M382 0l-27 124h-175l-26 -124h-144l169 650h177l171 -650h-145zM267 529l-61 -293h123l-60 293h-2z" />
    <glyph glyph-name="B" unicode="B" horiz-adv-x="558" 
d="M60 0v650h233c165 0 209 -51 209 -168c0 -71 -31 -119 -73 -142c64 -25 94 -78 94 -157c0 -112 -60 -183 -217 -183h-246zM200 114h102c53 0 80 21 80 80c0 65 -34 81 -83 81h-99v-161zM289 536h-89v-151h88c53 0 75 20 75 76c0 48 -21 75 -74 75z" />
    <glyph glyph-name="C" unicode="C" horiz-adv-x="548" 
d="M279 102c64 0 91 27 91 104h138c0 -152 -67 -218 -229 -218c-161 0 -234 73 -234 233v208c0 165 78 233 234 233c162 0 229 -65 229 -217h-138c0 73 -27 103 -91 103c-61 0 -94 -26 -94 -98v-250c0 -72 35 -98 94 -98z" />
    <glyph glyph-name="D" unicode="D" horiz-adv-x="572" 
d="M279 536h-79v-422h79c89 0 108 39 108 108v214c0 97 -37 100 -108 100zM282 0h-222v650h222c163 0 245 -40 245 -230v-188c0 -190 -82 -232 -245 -232z" />
    <glyph glyph-name="E" unicode="E" horiz-adv-x="503" 
d="M60 0v650h398v-114h-258v-151h224v-110h-224v-161h258v-114h-398z" />
    <glyph glyph-name="F" unicode="F" horiz-adv-x="468" 
d="M200 0h-140v650h378v-114h-238v-151h203v-110h-203v-275z" />
    <glyph glyph-name="G" unicode="G" horiz-adv-x="570" 
d="M279 -12c-161 0 -234 71 -234 233v207c0 164 81 234 234 234c162 0 231 -65 231 -217h-140c0 67 -27 103 -91 103c-61 0 -94 -26 -94 -98v-250c0 -76 36 -98 99 -98c64 0 96 27 96 105v68h-103v110h243v-385h-68l-23 43c-39 -37 -84 -55 -150 -55z" />
    <glyph glyph-name="H" unicode="H" horiz-adv-x="579" 
d="M519 650v-650h-140v275h-179v-275h-140v650h140v-265h179v265h140z" />
    <glyph glyph-name="I" unicode="I" horiz-adv-x="260" 
d="M60 0v650h140v-650h-140z" />
    <glyph glyph-name="J" unicode="J" horiz-adv-x="360" 
d="M160 536h-95v114h235v-488c0 -114 -19 -174 -178 -174c-33 0 -67 5 -97 12v114c17 -5 53 -12 78 -12c46 0 57 17 57 58v376z" />
    <glyph glyph-name="K" unicode="K" horiz-adv-x="523" 
d="M513 650l-200 -314l205 -336h-160l-158 276v-276h-140v650h140v-266l152 266h161z" />
    <glyph glyph-name="L" unicode="L" horiz-adv-x="418" 
d="M60 0v650h140v-536h198v-114h-338z" />
    <glyph glyph-name="M" unicode="M" horiz-adv-x="729" 
d="M533 0v301l8 199l-123 -500h-107l-123 500l8 -200v-300h-136v650h195l108 -461h3l108 461h195v-650h-136z" />
    <glyph glyph-name="N" unicode="N" horiz-adv-x="584" 
d="M524 650v-650h-161l-176 453c4 -52 5 -108 5 -179v-274h-132v650h161l176 -453c-3 55 -5 113 -5 184v269h132z" />
    <glyph glyph-name="O" unicode="O" horiz-adv-x="569" 
d="M384 206v238c0 72 -30 104 -100 104c-68 0 -99 -32 -99 -103v-239c0 -72 30 -104 99 -104c70 0 100 32 100 104zM45 210v230c0 151 71 222 239 222s240 -70 240 -222v-230c0 -151 -72 -222 -240 -222s-239 71 -239 222z" />
    <glyph glyph-name="P" unicode="P" horiz-adv-x="550" 
d="M200 338h83c64 0 92 20 92 99c0 76 -27 99 -91 99h-84v-198zM60 0v650h223c155 0 232 -37 232 -212c0 -164 -74 -210 -230 -210h-85v-228h-140z" />
    <glyph glyph-name="Q" unicode="Q" horiz-adv-x="569" 
d="M45 210v230c0 151 71 222 239 222s240 -70 240 -222v-230c0 -129 -53 -203 -178 -219c8 -30 28 -35 53 -35h50l-26 -64h-68c-72 0 -116 27 -130 99c-126 15 -180 87 -180 219zM384 206v238c0 72 -30 104 -100 104c-68 0 -99 -32 -99 -103v-239c0 -72 30 -104 99 -104
c70 0 100 32 100 104z" />
    <glyph glyph-name="R" unicode="R" horiz-adv-x="560" 
d="M60 0v650h223c158 0 233 -37 233 -212c0 -107 -35 -166 -105 -193l119 -245h-150l-104 228h-76v-228h-140zM200 338h83c64 0 92 20 92 99c0 76 -27 99 -91 99h-84v-198z" />
    <glyph glyph-name="S" unicode="S" horiz-adv-x="557" 
d="M372 193c0 50 -19 68 -133 88c-128 22 -196 65 -196 193c0 115 72 188 230 188c164 0 229 -53 229 -192h-140c0 55 -27 78 -90 78s-87 -26 -87 -75c0 -59 21 -81 119 -97c162 -26 208 -71 208 -181c0 -154 -91 -207 -238 -207c-170 0 -239 59 -239 206h140
c0 -67 30 -92 99 -92c71 0 98 23 98 91z" />
    <glyph glyph-name="T" unicode="T" horiz-adv-x="458" 
d="M159 0v536h-144v114h428v-114h-144v-536h-140z" />
    <glyph glyph-name="U" unicode="U" horiz-adv-x="575" 
d="M55 650h140v-449c0 -69 26 -98 93 -98s92 29 92 98v449h140v-442c0 -167 -80 -219 -232 -219c-153 0 -233 52 -233 219v442z" />
    <glyph glyph-name="V" unicode="V" horiz-adv-x="538" 
d="M528 650l-171 -650h-176l-171 650h144l114 -525h2l114 525h144z" />
    <glyph glyph-name="W" unicode="W" horiz-adv-x="819" 
d="M577 121l77 529h140l-119 -650h-189l-76 527l-76 -527h-189l-120 650h141l76 -529h2l81 529h170l80 -529h2z" />
    <glyph glyph-name="X" unicode="X" horiz-adv-x="511" 
d="M165 650l90 -217h1l90 217h156l-170 -315c58 -111 117 -224 174 -335h-155c-31 75 -64 161 -95 236c-33 -75 -65 -161 -96 -236h-155c57 111 116 224 174 335l-170 315h156z" />
    <glyph glyph-name="Y" unicode="Y" horiz-adv-x="528" 
d="M194 0v239l-184 411h151l102 -285h2l102 285h151l-184 -411v-239h-140z" />
    <glyph glyph-name="Z" unicode="Z" horiz-adv-x="507" 
d="M50 536v114h412v-99l-264 -437h274v-114h-432v99l262 437h-252z" />
    <glyph glyph-name="a" unicode="a" horiz-adv-x="525" 
d="M227 98c44 0 82 15 112 41v78l-114 -13c-37 -4 -54 -24 -54 -55c0 -34 23 -51 56 -51zM35 136c0 88 45 140 163 148l141 10v44c0 46 -19 64 -76 64c-58 0 -76 -20 -76 -65h-134c0 115 59 175 209 175c155 0 213 -57 213 -174v-338h-99l-23 43c-46 -37 -96 -55 -153 -55
c-111 0 -165 56 -165 148z" />
    <glyph glyph-name="b" unicode="b" horiz-adv-x="539" 
d="M177 43l-23 -43h-99v670h136v-201c49 31 90 43 130 43c107 0 178 -36 178 -208v-108c0 -173 -76 -208 -177 -208c-40 0 -88 12 -145 55zM363 187v126c0 72 -23 89 -69 89c-42 0 -78 -18 -103 -42v-220c25 -24 61 -42 103 -42c46 0 69 17 69 89z" />
    <glyph glyph-name="c" unicode="c" horiz-adv-x="517" 
d="M264 402c-69 0 -88 -29 -88 -111v-82c0 -87 22 -111 88 -111c53 0 79 15 79 82h134c0 -150 -80 -192 -213 -192c-151 0 -224 54 -224 231v62c0 180 74 231 224 231c136 0 213 -41 213 -192h-134c0 69 -27 82 -79 82z" />
    <glyph glyph-name="d" unicode="d" horiz-adv-x="539" 
d="M385 0l-23 43c-57 -43 -105 -55 -145 -55c-101 0 -177 35 -177 208v108c0 172 71 208 178 208c40 0 81 -12 130 -43v201h136v-670h-99zM176 313v-126c0 -72 23 -89 69 -89c42 0 78 18 103 42v220c-25 24 -61 42 -103 42c-46 0 -69 -17 -69 -89z" />
    <glyph glyph-name="e" unicode="e" horiz-adv-x="514" 
d="M176 295h169c0 88 -28 107 -82 107c-68 0 -87 -28 -87 -107zM264 98c91 0 129 7 192 17v-109c-57 -10 -121 -18 -191 -18c-148 0 -225 49 -225 232v61c0 180 74 231 224 231c142 0 215 -49 215 -232v-75h-303c0 -69 16 -107 88 -107z" />
    <glyph glyph-name="f" unicode="f" horiz-adv-x="333" 
d="M313 575c-13 2 -35 5 -54 5c-28 0 -39 -10 -39 -42v-38h74v-110h-74v-390h-136v390h-64v97l64 13v51c0 107 46 139 136 139c36 0 70 -5 93 -11v-104z" />
    <glyph glyph-name="g" unicode="g" horiz-adv-x="539" 
d="M484 500v-503c0 -131 -68 -179 -220 -179c-41 0 -111 6 -161 19v112c53 -14 107 -21 159 -21c60 0 86 18 86 69v46c-49 -31 -90 -43 -130 -43c-107 0 -178 36 -178 208v96c0 173 76 208 177 208c40 0 88 -12 145 -55l23 43h99zM348 142v228c-25 19 -64 32 -101 32
c-52 0 -71 -24 -71 -99v-94c0 -75 19 -99 71 -99c37 0 75 13 101 32z" />
    <glyph glyph-name="h" unicode="h" horiz-adv-x="535" 
d="M55 670h136v-203c50 34 92 45 145 45c106 0 149 -44 149 -177v-335h-136v331c0 55 -15 71 -63 71c-30 0 -68 -16 -95 -42v-360h-136v670z" />
    <glyph glyph-name="i" unicode="i" horiz-adv-x="246" 
d="M55 0v500h136v-500h-136zM55 544v126h136v-126h-136z" />
    <glyph glyph-name="j" unicode="j" horiz-adv-x="246" 
d="M191 500v-540c0 -107 -46 -142 -136 -142c-36 0 -70 5 -93 11v107c13 -2 35 -5 54 -5c28 0 39 10 39 42v527h136zM55 544v126h136v-126h-136z" />
    <glyph glyph-name="k" unicode="k" horiz-adv-x="495" 
d="M191 224v-224h-136v670h136v-363h2l128 193h156l-168 -232l176 -268h-161l-131 224h-2z" />
    <glyph glyph-name="l" unicode="l" horiz-adv-x="246" 
d="M55 0v670h136v-670h-136z" />
    <glyph glyph-name="m" unicode="m" horiz-adv-x="773" 
d="M587 0v330c0 59 -14 72 -56 72c-19 0 -53 -11 -74 -26v-376h-136v330c0 59 -14 72 -56 72c-19 0 -53 -11 -74 -26v-376h-136v500h96l22 -37c44 30 84 49 138 49c61 0 92 -12 123 -48c40 25 88 48 145 48c113 0 144 -45 144 -183v-329h-136z" />
    <glyph glyph-name="n" unicode="n" horiz-adv-x="537" 
d="M55 500h99l23 -43c57 43 101 55 159 55c106 0 151 -44 151 -177v-335h-136v331c0 55 -15 71 -63 71c-30 0 -70 -16 -97 -42v-360h-136v500z" />
    <glyph glyph-name="o" unicode="o" horiz-adv-x="527" 
d="M176 291v-82c0 -88 24 -111 88 -111s87 23 87 111v82c0 88 -23 111 -87 111s-88 -23 -88 -111zM487 281v-62c0 -180 -76 -231 -223 -231c-150 0 -224 51 -224 231v62c0 179 76 231 224 231c146 0 223 -52 223 -231z" />
    <glyph glyph-name="p" unicode="p" horiz-adv-x="539" 
d="M154 500l23 -43c57 43 105 55 145 55c101 0 177 -35 177 -208v-108c0 -172 -71 -208 -178 -208c-40 0 -81 12 -130 43v-201h-136v670h99zM363 187v126c0 72 -23 89 -69 89c-42 0 -78 -18 -103 -42v-220c25 -24 61 -42 103 -42c46 0 69 17 69 89z" />
    <glyph glyph-name="q" unicode="q" horiz-adv-x="539" 
d="M362 457l23 43h99v-670h-136v201c-49 -31 -90 -43 -130 -43c-107 0 -178 36 -178 208v108c0 173 76 208 177 208c40 0 88 -12 145 -55zM176 313v-126c0 -72 23 -89 69 -89c42 0 78 18 103 42v220c-25 24 -61 42 -103 42c-46 0 -69 -17 -69 -89z" />
    <glyph glyph-name="r" unicode="r" horiz-adv-x="339" 
d="M314 512v-120c-46 0 -93 -14 -123 -38v-354h-136v500h96l22 -37c42 33 91 49 141 49z" />
    <glyph glyph-name="s" unicode="s" horiz-adv-x="501" 
d="M466 145c0 -77 -10 -157 -214 -157c-168 0 -217 55 -217 169h136c0 -47 23 -59 81 -59c56 0 78 15 78 47c0 44 -14 56 -102 63c-152 12 -188 57 -188 148c0 105 74 156 207 156c154 0 210 -44 210 -171h-136c0 26 -1 61 -74 61c-59 0 -71 -22 -71 -50
c0 -36 14 -50 81 -56c179 -15 209 -48 209 -151z" />
    <glyph glyph-name="t" unicode="t" horiz-adv-x="343" 
d="M313 103v-103c-23 -6 -57 -12 -93 -12c-90 0 -136 32 -136 139v263h-64v97l64 13v113l136 27v-140h93v-110h-93v-250c0 -32 11 -42 39 -42c19 0 41 3 54 5z" />
    <glyph glyph-name="u" unicode="u" 
d="M485 0h-99l-23 43c-57 -43 -101 -55 -159 -55c-106 0 -149 44 -149 177v335h136v-331c0 -55 15 -71 63 -71c30 0 68 16 95 42v360h136v-500z" />
    <glyph glyph-name="v" unicode="v" horiz-adv-x="494" 
d="M156 500l90 -364h2l90 364h146l-159 -500h-156l-159 500h146z" />
    <glyph glyph-name="w" unicode="w" horiz-adv-x="744" 
d="M522 131l61 369h141l-120 -500h-164l-68 370l-67 -370h-164l-121 500h141l63 -367l74 367h149l73 -369h2z" />
    <glyph glyph-name="x" unicode="x" horiz-adv-x="487" 
d="M244 354l76 146h152l-155 -247l160 -253h-156l-77 151h-1l-77 -151h-156l160 253l-155 247h152l76 -146h1z" />
    <glyph glyph-name="y" unicode="y" horiz-adv-x="496" 
d="M186 2l-176 498h146l94 -333h2l87 333h147l-187 -558c-30 -90 -74 -124 -192 -124c-17 0 -53 4 -71 10v109c20 -6 45 -9 66 -9c46 0 62 15 78 57z" />
    <glyph glyph-name="z" unicode="z" horiz-adv-x="470" 
d="M45 390v110h386v-96l-231 -294h240v-110h-405v96l231 294h-221z" />
    <glyph glyph-name="one" unicode="1" horiz-adv-x="387" 
d="M297 0h-140v536h-107v62l157 52h90v-650z" />
    <glyph glyph-name="two" unicode="2" 
d="M180 453h-138c0 153 85 209 231 209c175 0 228 -82 228 -207c0 -223 -314 -178 -314 -341h318v-114h-465v89c0 275 321 217 321 363c0 61 -20 96 -88 96c-64 0 -93 -25 -93 -95z" />
    <glyph glyph-name="three" unicode="3" horiz-adv-x="553" 
d="M279 102c74 0 99 33 99 90c0 80 -60 83 -97 83h-61v110h54c54 0 91 11 91 83c0 48 -17 80 -89 80c-67 0 -94 -26 -94 -95h-137c0 140 69 209 231 209c179 0 229 -80 229 -191c0 -66 -33 -113 -101 -137c75 -22 114 -71 114 -149c0 -116 -40 -197 -239 -197
c-170 0 -239 67 -239 208h140c0 -64 31 -94 99 -94z" />
    <glyph glyph-name="four" unicode="4" horiz-adv-x="561" 
d="M320 0v130h-295v111l260 409h175v-406h71v-114h-71v-130h-140zM146 244h174v282z" />
    <glyph glyph-name="five" unicode="5" horiz-adv-x="539" 
d="M51 299l31 351h388v-114h-269l-11 -143c36 19 79 31 116 31c122 0 198 -41 198 -205c0 -147 -56 -231 -235 -231c-170 0 -239 67 -239 208h140c0 -67 31 -94 99 -94s95 30 95 117c0 86 -23 109 -95 109c-25 0 -63 -15 -79 -29h-139z" />
    <glyph glyph-name="six" unicode="6" horiz-adv-x="550" 
d="M180 457v-93c42 24 76 34 135 34c144 0 195 -66 195 -194c0 -123 -50 -216 -235 -216c-190 0 -235 98 -235 215v250c0 140 72 209 229 209c167 0 232 -67 232 -197h-140c0 56 -24 83 -92 83c-56 0 -89 -19 -89 -91zM278 305c-41 0 -76 -13 -98 -34v-61
c0 -69 18 -108 92 -108c83 0 98 38 98 101c0 73 -20 102 -92 102z" />
    <glyph glyph-name="seven" unicode="7" horiz-adv-x="474" 
d="M243 0h-146l212 536h-289v114h434v-98z" />
    <glyph glyph-name="eight" unicode="8" horiz-adv-x="549" 
d="M275 -12c-164 0 -245 53 -245 184c0 92 50 139 114 162c-63 27 -98 73 -98 148c0 127 77 180 229 180c147 0 228 -52 228 -177c0 -76 -34 -123 -97 -151c62 -23 113 -70 113 -162c0 -131 -80 -184 -244 -184zM275 381c48 0 91 16 91 83c0 64 -27 84 -91 84
s-91 -20 -91 -84c0 -67 43 -83 91 -83zM275 102c68 0 102 24 102 85c0 77 -41 92 -102 92s-102 -15 -102 -92c0 -61 34 -85 102 -85z" />
    <glyph glyph-name="nine" unicode="9" horiz-adv-x="550" 
d="M370 193v96c-42 -24 -76 -34 -135 -34c-144 0 -195 66 -195 194c0 123 50 213 235 213c190 0 235 -98 235 -215v-250c0 -140 -71 -209 -228 -209c-173 0 -234 65 -234 198h140c0 -56 26 -84 94 -84c56 0 88 19 88 91zM272 348c41 0 76 13 98 34v58c0 69 -18 108 -92 108
c-83 0 -98 -38 -98 -101c0 -73 20 -99 92 -99z" />
    <glyph glyph-name="zero" unicode="0" horiz-adv-x="554" 
d="M277 102c76 0 97 24 97 100v243c0 85 -26 103 -97 103s-97 -18 -97 -103v-243c0 -76 21 -100 97 -100zM277 662c162 0 237 -62 237 -221v-230c0 -159 -77 -223 -237 -223s-237 64 -237 223v230c0 159 75 221 237 221z" />
    <glyph glyph-name="exclam" unicode="!" horiz-adv-x="276" 
d="M88 217l-33 433h166l-33 -433h-100zM65 0v146h146v-146h-146z" />
    <glyph glyph-name="exclamdown" unicode="&#xa1;" horiz-adv-x="276" 
d="M55 -150l33 433h100l33 -433h-166zM65 354v146h146v-146h-146z" />
    <glyph glyph-name="question" unicode="?" horiz-adv-x="530" 
d="M220 196l-17 165c129 0 147 20 147 106c0 67 -38 79 -86 79c-49 0 -86 -12 -86 -82h-138c0 137 65 198 224 198s226 -63 226 -195c0 -142 -64 -189 -173 -203l-8 -68h-89zM191 0v146h146v-146h-146z" />
    <glyph glyph-name="questiondown" unicode="&#xbf;" horiz-adv-x="530" 
d="M310 304l17 -165c-129 0 -147 -20 -147 -106c0 -67 38 -79 86 -79c49 0 86 12 86 82h138c0 -137 -65 -198 -224 -198s-226 63 -226 195c0 142 64 189 173 203l8 68h89zM339 500v-146h-146v146h146z" />
    <glyph glyph-name="period" unicode="." horiz-adv-x="236" 
d="M45 0v146h146v-146h-146z" />
    <glyph glyph-name="ellipsis" unicode="&#x2026;" horiz-adv-x="668" 
d="M45 0v146h146v-146h-146zM261 0v146h146v-146h-146zM477 0v146h146v-146h-146z" />
    <glyph glyph-name="comma" unicode="," horiz-adv-x="231" 
d="M45 -130v276h146l-58 -276h-88z" />
    <glyph glyph-name="colon" unicode=":" horiz-adv-x="236" 
d="M45 0v146h146v-146h-146zM45 274v146h146v-146h-146z" />
    <glyph glyph-name="semicolon" unicode=";" horiz-adv-x="231" 
d="M45 274v146h146v-146h-146zM45 -130v276h146l-58 -276h-88z" />
    <glyph glyph-name="hyphen" unicode="-" horiz-adv-x="350" 
d="M50 218v114h250v-114h-250z" />
    <glyph glyph-name="uni00AD" unicode="&#xad;" horiz-adv-x="350" 
d="M50 218v114h250v-114h-250z" />
    <glyph glyph-name="endash" unicode="&#x2013;" horiz-adv-x="475" 
d="M50 218v114h375v-114h-375z" />
    <glyph glyph-name="emdash" unicode="&#x2014;" horiz-adv-x="610" 
d="M40 218v114h530v-114h-530z" />
    <glyph glyph-name="periodcentered" unicode="&#xb7;" horiz-adv-x="212" 
d="M35 255v143h142v-143h-142z" />
    <glyph glyph-name="underscore" unicode="_" horiz-adv-x="485" 
d="M55 0v114h375v-114h-375z" />
    <glyph glyph-name="quotesingle" unicode="'" horiz-adv-x="210" 
d="M147 344h-84l-28 306h140z" />
    <glyph glyph-name="quotedbl" unicode="&#x22;" horiz-adv-x="390" 
d="M327 344h-84l-28 306h140zM147 344h-84l-28 306h140z" />
    <glyph glyph-name="quoteleft" unicode="&#x2018;" horiz-adv-x="222" 
d="M177 650v-306h-88l-54 306h142z" />
    <glyph glyph-name="quoteright" unicode="&#x2019;" horiz-adv-x="222" 
d="M45 344v306h142l-54 -306h-88z" />
    <glyph glyph-name="quotesinglbase" unicode="&#x201a;" horiz-adv-x="232" 
d="M50 -130v306h142l-54 -306h-88z" />
    <glyph glyph-name="quotedblleft" unicode="&#x201c;" horiz-adv-x="409" 
d="M177 650v-306h-88l-54 306h142zM359 650v-306h-88l-54 306h142z" />
    <glyph glyph-name="quotedblright" unicode="&#x201d;" horiz-adv-x="409" 
d="M232 344v306h142l-54 -306h-88zM50 344v306h142l-54 -306h-88z" />
    <glyph glyph-name="quotedblbase" unicode="&#x201e;" horiz-adv-x="414" 
d="M50 -130v306h142l-54 -306h-88zM232 -130v306h142l-54 -306h-88z" />
    <glyph glyph-name="guillemotleft" unicode="&#xab;" horiz-adv-x="533" 
d="M170 55l-130 195l130 195h117l-132 -195l132 -195h-117zM376 55l-130 195l130 195h117l-132 -195l132 -195h-117z" />
    <glyph glyph-name="guillemotright" unicode="&#xbb;" horiz-adv-x="533" 
d="M493 250l-130 -195h-117l132 195l-132 195h117zM287 250l-130 -195h-117l132 195l-132 195h117z" />
    <glyph glyph-name="guilsinglleft" unicode="&#x2039;" horiz-adv-x="327" 
d="M170 55l-130 195l130 195h117l-132 -195l132 -195h-117z" />
    <glyph glyph-name="guilsinglright" unicode="&#x203a;" horiz-adv-x="327" 
d="M287 250l-130 -195h-117l132 195l-132 195h117z" />
    <glyph glyph-name="ampersand" unicode="&#x26;" horiz-adv-x="608" 
d="M563 275h-63v-97c0 -50 24 -64 68 -64v-114c-65 0 -112 10 -140 54c-32 -40 -91 -66 -160 -66c-159 0 -229 56 -229 187c0 80 42 131 110 159c-63 32 -95 80 -95 145c0 122 67 183 212 183c155 0 217 -47 217 -189h-140c0 59 -25 75 -77 75c-50 0 -73 -21 -73 -76
c0 -57 23 -87 72 -87h298v-110zM271 102c56 0 89 25 89 93v80h-100c-46 0 -80 -26 -80 -87c0 -68 34 -86 91 -86z" />
    <glyph glyph-name="at" unicode="@" horiz-adv-x="790" 
d="M60 170v146c0 176 104 286 335 286c229 0 335 -110 335 -286v-146c0 -176 -106 -286 -335 -286c-226 0 -335 110 -335 286zM154 312v-138c0 -136 78 -202 241 -202s241 66 241 202v138c0 136 -78 202 -241 202s-241 -66 -241 -202zM368 142c31 0 58 11 79 29v57l-80 -9
c-29 -3 -39 -18 -39 -40c0 -24 17 -37 40 -37zM231 169c0 62 37 97 117 103l99 7v35c0 32 -15 46 -54 46c-41 0 -54 -16 -54 -47h-94c0 80 46 122 148 122c108 0 150 -40 150 -121v-239h-70l-16 30c-33 -26 -68 -39 -108 -39c-77 0 -118 39 -118 103z" />
    <glyph glyph-name="at.caps" horiz-adv-x="790" 
d="M60 252v146c0 176 104 286 335 286c229 0 335 -110 335 -286v-146c0 -176 -106 -286 -335 -286c-226 0 -335 110 -335 286zM154 394v-138c0 -136 78 -202 241 -202s241 66 241 202v138c0 136 -78 202 -241 202s-241 -66 -241 -202zM368 224c31 0 58 11 79 29v57l-80 -9
c-29 -3 -39 -18 -39 -40c0 -24 17 -37 40 -37zM231 251c0 62 37 97 117 103l99 7v35c0 32 -15 46 -54 46c-41 0 -54 -16 -54 -47h-94c0 80 46 122 148 122c108 0 150 -40 150 -121v-239h-70l-16 30c-33 -26 -68 -39 -108 -39c-77 0 -118 39 -118 103z" />
    <glyph glyph-name="mu" unicode="&#xb5;" 
d="M193 -170h-138v670h138v-360c27 -26 65 -42 95 -42c48 0 63 16 63 71v331h138v-335c0 -133 -45 -177 -151 -177c-53 0 -95 11 -145 45v-203z" />
    <glyph glyph-name="mu" unicode="&#x3bc;" 
d="M193 -170h-138v670h138v-360c27 -26 65 -42 95 -42c48 0 63 16 63 71v331h138v-335c0 -133 -45 -177 -151 -177c-53 0 -95 11 -145 45v-203z" />
    <glyph glyph-name="section" unicode="&#xa7;" horiz-adv-x="570" 
d="M50 249c0 47 24 87 64 115c-38 26 -59 64 -59 123c0 123 76 175 225 175c176 0 233 -52 233 -192h-140c0 58 -25 78 -92 78c-64 0 -86 -25 -86 -62c0 -46 23 -62 108 -75c162 -25 217 -58 217 -168c0 -48 -24 -87 -64 -115c38 -27 59 -65 59 -123
c0 -123 -76 -175 -225 -175c-176 0 -233 52 -233 192h140c0 -58 25 -78 92 -78c64 0 86 25 86 62c0 46 -23 62 -108 75c-162 25 -217 58 -217 168zM310 178c18 -4 35 -7 51 -11c18 15 29 34 29 59c0 51 -25 69 -130 88c-18 3 -35 7 -51 11c-18 -15 -29 -35 -29 -59
c0 -51 25 -69 130 -88z" />
    <glyph glyph-name="paragraph" unicode="&#xb6;" horiz-adv-x="751" 
d="M60 403c0 188 87 247 249 247h322v-820h-96v726h-70v-726h-96v331h-62c-168 0 -247 76 -247 242z" />
    <glyph glyph-name="bullet" unicode="&#x2022;" horiz-adv-x="431" 
d="M399 346v-42c0 -145 -56 -179 -183 -179s-183 34 -183 179v42c0 145 56 179 183 179s183 -34 183 -179z" />
    <glyph glyph-name="copyright" unicode="&#xa9;" horiz-adv-x="790" 
d="M60 252v146c0 176 104 286 335 286c229 0 335 -110 335 -286v-146c0 -176 -106 -286 -335 -286c-226 0 -335 110 -335 286zM154 394v-138c0 -136 78 -202 241 -202s241 66 241 202v138c0 136 -78 202 -241 202s-241 -66 -241 -202zM393 430c-48 0 -61 -20 -61 -77v-58
c0 -61 15 -77 61 -77c37 0 56 10 56 57h95c0 -105 -58 -134 -151 -134c-105 0 -158 37 -158 161v44c0 126 53 161 158 161c96 0 151 -28 151 -134h-95c0 48 -19 57 -56 57z" />
    <glyph glyph-name="registered" unicode="&#xae;" horiz-adv-x="790" 
d="M459 146l-60 120h-63v-120h-85v358h157c96 0 135 -25 135 -116c0 -61 -24 -89 -59 -108l68 -134h-93zM336 426v-86h69c33 0 47 13 47 43c0 32 -11 43 -50 43h-66zM60 252v146c0 176 104 286 335 286c229 0 335 -110 335 -286v-146c0 -176 -106 -286 -335 -286
c-226 0 -335 110 -335 286zM154 394v-138c0 -136 78 -202 241 -202s241 66 241 202v138c0 136 -78 202 -241 202s-241 -66 -241 -202z" />
    <glyph glyph-name="trademark" unicode="&#x2122;" horiz-adv-x="546" 
d="M94 385v215h-62v50h177v-50h-62v-215h-53zM318 650l55 -178l54 178h79v-265h-53v186l-60 -186h-41l-59 186v-186h-54v265h79z" />
    <glyph glyph-name="asterisk" unicode="*" horiz-adv-x="532" 
d="M289 488l157 105l46 -142l-189 -7l149 -117l-120 -87l-66 177l-66 -177l-120 87l149 117l-189 7l46 142l157 -105l-52 182h150z" />
    <glyph glyph-name="dagger" unicode="&#x2020;" horiz-adv-x="338" 
d="M40 570h96v100h66v-100h96v-62h-96v-248h-66v248h-96v62z" />
    <glyph glyph-name="daggerdbl" unicode="&#x2021;" horiz-adv-x="338" 
d="M40 570h96v100h66v-100h96v-62h-96v-86h96v-62h-96v-100h-66v100h-96v62h96v86h-96v62z" />
    <glyph glyph-name="asciicircum" unicode="^" horiz-adv-x="484" 
d="M241 543l-80 -192h-116l137 299h120l137 -299h-116l-80 192h-2z" />
    <glyph glyph-name="asciitilde" unicode="~" horiz-adv-x="474" 
d="M323 492c-87 0 -109 68 -155 68c-20 0 -39 -6 -39 -56h-99c0 128 42 158 121 158c87 0 110 -68 155 -68c20 0 39 6 39 56h99c0 -128 -42 -158 -121 -158z" />
    <glyph glyph-name="ordfeminine" unicode="&#xaa;" horiz-adv-x="438" 
d="M184 330c35 0 65 12 89 33v63l-91 -11c-30 -3 -43 -19 -43 -44c0 -27 18 -41 45 -41zM28 361c0 70 38 112 132 118l113 8v35c0 37 -15 52 -61 52s-60 -16 -60 -52h-109c0 92 49 140 169 140c124 0 172 -46 172 -140v-270h-81l-19 34c-36 -29 -76 -44 -122 -44
c-89 0 -134 45 -134 119z" />
    <glyph glyph-name="ordmasculine" unicode="&#xba;" horiz-adv-x="444" 
d="M402 477v-50c0 -144 -62 -185 -180 -185c-121 0 -181 41 -181 185v50c0 143 62 185 181 185c117 0 180 -42 180 -185zM151 485v-66c0 -70 20 -89 71 -89s69 19 69 89v66c0 70 -18 89 -69 89s-71 -19 -71 -89z" />
    <glyph glyph-name="slash" unicode="/" horiz-adv-x="343" 
d="M30 -40l173 730h110l-172 -730h-111z" />
    <glyph glyph-name="backslash" unicode="\" horiz-adv-x="333" 
d="M130 690l173 -730h-101l-172 730h100z" />
    <glyph glyph-name="bar" unicode="|" horiz-adv-x="240" 
d="M170 690v-810h-100v810h100z" />
    <glyph glyph-name="brokenbar" unicode="&#xa6;" horiz-adv-x="240" 
d="M170 690v-340h-100v340h100zM170 220v-340h-100v340h100z" />
    <glyph glyph-name="parenleft" unicode="(" horiz-adv-x="322" 
d="M152 285c0 -161 55 -303 140 -405h-97c-95 108 -150 251 -150 405s55 297 150 405h97c-85 -102 -140 -244 -140 -405z" />
    <glyph glyph-name="parenright" unicode=")" horiz-adv-x="322" 
d="M170 285c0 161 -55 303 -140 405h97c95 -108 150 -251 150 -405s-55 -297 -150 -405h-97c85 102 140 244 140 405z" />
    <glyph glyph-name="bracketleft" unicode="[" horiz-adv-x="312" 
d="M60 -122v814h202v-69h-106v-676h106v-69h-202z" />
    <glyph glyph-name="bracketright" unicode="]" horiz-adv-x="312" 
d="M252 692v-814h-202v69h106v676h-106v69h202z" />
    <glyph glyph-name="braceleft" unicode="{" horiz-adv-x="384" 
d="M194 285c34 -20 45 -54 45 -110v-182c0 -31 12 -44 42 -44h63v-69h-63c-98 0 -138 24 -138 124v205c0 31 -10 41 -39 41h-64v70h64c29 0 39 10 39 41v205c0 100 40 124 138 124h63v-69h-63c-30 0 -42 -13 -42 -44v-182c0 -56 -11 -90 -45 -110z" />
    <glyph glyph-name="braceright" unicode="}" horiz-adv-x="384" 
d="M190 285c-34 20 -45 54 -45 110v182c0 31 -12 44 -42 44h-63v69h63c98 0 138 -24 138 -124v-205c0 -31 10 -41 39 -41h64v-70h-64c-29 0 -39 -10 -39 -41v-205c0 -100 -40 -124 -138 -124h-63v69h63c30 0 42 13 42 44v182c0 56 11 90 45 110z" />
    <glyph glyph-name="less" unicode="&#x3c;" horiz-adv-x="365" 
d="M225 -40l-195 365l195 365h110l-198 -365l198 -365h-110z" />
    <glyph glyph-name="greater" unicode="&#x3e;" horiz-adv-x="365" 
d="M335 325l-195 -365h-110l198 365l-198 365h110z" />
    <glyph glyph-name="dollar" unicode="$" horiz-adv-x="511" 
d="M471 225c0 -70 -9 -142 -162 -155v-90h-106v90c-125 11 -163 66 -163 167h138c0 -47 21 -59 79 -59c56 0 76 15 76 47c0 44 -12 56 -100 63c-152 12 -188 57 -188 148s56 142 158 153v81h106v-81c111 -11 154 -58 154 -168h-138c0 26 0 61 -73 61c-59 0 -69 -22 -69 -50
c0 -36 12 -50 79 -56c179 -15 209 -48 209 -151z" />
    <glyph glyph-name="cent" unicode="&#xa2;" horiz-adv-x="532" 
d="M272 477c-69 0 -88 -29 -88 -111v-82c0 -87 22 -111 88 -111c53 0 79 15 79 82h136c0 -128 -60 -177 -159 -189v-86h-106v85c-118 12 -176 73 -176 229v62c0 159 59 217 176 229v85h106v-86c101 -12 159 -60 159 -189h-136c0 69 -27 82 -79 82z" />
    <glyph glyph-name="sterling" unicode="&#xa3;" horiz-adv-x="562" 
d="M358 0h-306v114c74 0 103 22 103 93c0 20 -7 47 -14 67h-89v82h63c-14 35 -30 86 -30 131c0 115 66 175 205 175c138 0 206 -42 206 -182h-140c0 45 -16 68 -64 68c-47 0 -65 -20 -65 -67c0 -45 14 -85 21 -125h109v-82h-97c3 -17 6 -34 6 -50c0 -50 -12 -83 -41 -110
h101c51 0 66 18 66 73h140c0 -138 -44 -187 -174 -187z" />
    <glyph glyph-name="Euro" unicode="&#x20ac;" horiz-adv-x="600" 
d="M324 102c64 0 91 27 91 104h138c0 -152 -67 -218 -229 -218c-161 0 -234 73 -234 233v17h-53v60h53v53h-53v60h53v18c0 165 78 233 234 233c162 0 229 -65 229 -217h-138c0 73 -27 103 -91 103c-61 0 -94 -26 -94 -98v-39h136l-10 -60h-126v-53h118l-10 -60h-108v-38
c0 -72 35 -98 94 -98z" />
    <glyph glyph-name="yen" unicode="&#xa5;" horiz-adv-x="542" 
d="M83 139h118v53h-118v60h112l-178 398h151l102 -285h2l102 285h151l-178 -398h112v-60h-118v-53h118v-60h-118v-79h-140v79h-118v60z" />
    <glyph glyph-name="numbersign" unicode="#" horiz-adv-x="560" 
d="M509 234l-7 -78h-94l-13 -156h-91l13 156h-106l-13 -156h-90l14 156h-94l7 78h94l16 183h-94l7 78h94l13 155h90l-14 -155h106l14 155h91l-14 -155h94l-7 -78h-94l-16 -183h94zM234 417l-16 -183h106l16 183h-106z" />
    <glyph glyph-name="percent" unicode="%" horiz-adv-x="652" 
d="M180 372c-95 0 -140 35 -140 145c0 109 45 145 140 145s140 -36 140 -145c0 -110 -45 -145 -140 -145zM180 441c39 0 55 15 55 76s-16 76 -55 76s-55 -15 -55 -76s16 -76 55 -76zM68 0l427 650h89l-427 -650h-89zM472 278c95 0 140 -35 140 -145
c0 -109 -45 -145 -140 -145s-140 36 -140 145c0 110 45 145 140 145zM472 209c-39 0 -55 -15 -55 -76s16 -76 55 -76s55 15 55 76s-16 76 -55 76z" />
    <glyph glyph-name="perthousand" unicode="&#x2030;" horiz-adv-x="847" 
d="M667 278c95 0 140 -35 140 -145c0 -109 -45 -145 -140 -145c-46 0 -77 8 -98 28c-20 -20 -52 -28 -97 -28c-95 0 -140 36 -140 145c0 110 45 145 140 145c45 0 77 -8 97 -28c21 20 53 28 98 28zM180 372c-95 0 -140 35 -140 145c0 109 45 145 140 145s140 -36 140 -145
c0 -110 -45 -145 -140 -145zM667 209c-39 0 -55 -15 -55 -76s16 -76 55 -76s55 15 55 76s-16 76 -55 76zM180 441c39 0 55 15 55 76s-16 76 -55 76s-55 -15 -55 -76s16 -76 55 -76zM472 209c-39 0 -55 -15 -55 -76s16 -76 55 -76s55 15 55 76s-16 76 -55 76zM68 0l427 650
h89l-427 -650h-89z" />
    <glyph glyph-name="florin" unicode="&#x192;" horiz-adv-x="340" 
d="M84 -28v418h-64v97l64 13v51c0 107 48 139 138 139c36 0 70 -5 93 -11v-104c-13 2 -35 5 -54 5c-28 0 -39 -10 -39 -42v-38h74v-110h-74v-431c0 -107 -48 -139 -138 -139c-36 0 -70 5 -93 11v104c13 -2 35 -5 54 -5c28 0 39 10 39 42z" />
    <glyph glyph-name="currency" unicode="&#xa4;" horiz-adv-x="584" 
d="M380 299v51c0 98 -21 123 -88 123s-88 -25 -88 -123v-51c0 -97 21 -122 88 -122s88 25 88 122zM518 350v-51c0 -59 -8 -105 -26 -140c25 -27 49 -57 74 -84c-24 -21 -47 -39 -71 -60l-65 74c-36 -19 -81 -26 -138 -26c-58 0 -104 7 -140 28l-65 -76l-71 58l74 86
c-18 35 -24 81 -24 140v51c0 57 9 102 25 137c-26 29 -49 59 -75 88l69 58c23 -25 43 -52 66 -77c36 22 83 31 141 31c57 0 103 -9 141 -31c23 25 43 52 66 77l67 -58l-74 -86c16 -35 26 -80 26 -139z" />
    <glyph glyph-name="plus" unicode="+" horiz-adv-x="512" 
d="M50 226v98h157v158h98v-158h157v-98h-157v-158h-98v158h-157z" />
    <glyph glyph-name="minus" unicode="&#x2212;" horiz-adv-x="512" 
d="M462 226h-412v98h412v-98z" />
    <glyph glyph-name="equal" unicode="=" horiz-adv-x="512" 
d="M462 326h-412v98h412v-98zM462 126h-412v98h412v-98z" />
    <glyph glyph-name="notequal" unicode="&#x2260;" horiz-adv-x="512" 
d="M126 0l39 126h-115v98h145l30 102h-175v98h205l38 126h91l-39 -126h117v-98h-146l-31 -102h177v-98h-207l-38 -126h-91z" />
    <glyph glyph-name="approxequal" unicode="&#x2248;" horiz-adv-x="513" 
d="M353 104c-82 0 -130 51 -181 51c-17 0 -28 -7 -28 -29h-94c0 98 44 119 109 119c79 0 122 -50 182 -50c19 0 28 5 28 29h94c0 -100 -45 -120 -110 -120zM353 304c-82 0 -130 51 -181 51c-17 0 -28 -7 -28 -29h-94c0 98 44 119 109 119c79 0 122 -50 182 -50
c19 0 28 5 28 29h94c0 -100 -45 -120 -110 -120z" />
    <glyph glyph-name="multiply" unicode="&#xd7;" horiz-adv-x="462" 
d="M119 93l-69 70l112 111l-112 112l69 69l112 -111l111 111l69 -70l-111 -111l112 -111l-69 -70l-112 112z" />
    <glyph glyph-name="divide" unicode="&#xf7;" horiz-adv-x="512" 
d="M50 324h412v-98h-412v98zM202 376v108h108v-108h-108zM202 66v108h108v-108h-108z" />
    <glyph glyph-name="degree" unicode="&#xb0;" horiz-adv-x="378" 
d="M189 333c-106 0 -159 40 -159 165c0 124 53 164 159 164c105 0 159 -40 159 -164c0 -125 -54 -165 -159 -165zM189 413c41 0 61 18 61 85s-20 85 -61 85s-62 -18 -62 -85s21 -85 62 -85z" />
    <glyph glyph-name="plusminus" unicode="&#xb1;" horiz-adv-x="503" 
d="M50 298v98h157v158h98v-158h157v-98h-157v-158h-98v158h-157zM462 0h-412v98h412v-98z" />
    <glyph glyph-name="logicalnot" unicode="&#xac;" horiz-adv-x="503" 
d="M50 403h412v-263h-98v165h-314v98z" />
    <glyph glyph-name="lessequal" unicode="&#x2264;" horiz-adv-x="407" 
d="M347 0h-287v98h287v-98zM222 140l-162 202l162 203h125l-163 -203l163 -202h-125z" />
    <glyph glyph-name="greaterequal" unicode="&#x2265;" horiz-adv-x="407" 
d="M347 0h-287v98h287v-98zM347 342l-162 -202h-125l163 202l-163 203h125z" />
    <glyph glyph-name="integral" unicode="&#x222b;" horiz-adv-x="416" 
d="M243 577v-575c0 -100 -40 -124 -138 -124h-63v69h63c30 0 42 13 42 44v575c0 100 40 124 138 124h63v-69h-63c-30 0 -42 -13 -42 -44z" />
    <glyph glyph-name="pi" unicode="&#x3c0;" horiz-adv-x="592" 
d="M110 0v390h-65v110h502v-110h-65v-214c0 -49 13 -66 65 -66v-110c-157 0 -203 50 -203 170v220h-96v-390h-138z" />
    <glyph glyph-name="partialdiff" unicode="&#x2202;" horiz-adv-x="537" 
d="M487 289v-70c0 -180 -76 -231 -223 -231c-150 0 -224 51 -224 231v50c0 175 62 231 206 231c38 0 69 -9 93 -25c-19 68 -57 130 -130 206h159c94 -110 119 -214 119 -392zM176 279v-70c0 -88 24 -111 88 -111s87 23 87 111v70c0 88 -23 111 -87 111s-88 -23 -88 -111z
" />
    <glyph glyph-name="acute" unicode="&#xb4;" horiz-adv-x="235" 
d="M40 565l28 120h127l-72 -120h-83z" />
    <glyph glyph-name="grave" unicode="`" horiz-adv-x="235" 
d="M167 685l28 -120h-83l-72 120h127z" />
    <glyph glyph-name="circumflex" unicode="&#x2c6;" horiz-adv-x="335" 
d="M241 685l54 -120h-88l-40 54l-39 -54h-88l54 120h147z" />
    <glyph glyph-name="dieresis" unicode="&#xa8;" horiz-adv-x="352" 
d="M40 565v106h106v-106h-106zM206 565v106h106v-106h-106z" />
    <glyph glyph-name="tilde" unicode="&#x2dc;" horiz-adv-x="416" 
d="M260 650c19 0 31 10 31 32h78c0 -88 -30 -123 -94 -123c-58 0 -74 43 -119 43c-19 0 -31 -9 -31 -32h-78c0 90 30 123 94 123c58 0 76 -43 119 -43z" />
    <glyph glyph-name="caron" unicode="&#x2c7;" horiz-adv-x="335" 
d="M295 695l-54 -120h-147l-54 120h88l39 -54l40 54h88z" />
    <glyph glyph-name="caron.salt" horiz-adv-x="190" 
d="M40 440v230h110l-29 -230h-81z" />
    <glyph glyph-name="ring" unicode="&#x2da;" horiz-adv-x="302" 
d="M151 743c70 0 111 -31 111 -93s-41 -95 -111 -95s-111 33 -111 95s41 93 111 93zM151 613c27 0 39 13 39 37c0 22 -12 35 -39 35s-39 -13 -39 -35c0 -24 12 -37 39 -37z" />
    <glyph glyph-name="breve" unicode="&#x2d8;" horiz-adv-x="332" 
d="M166 555c-85 0 -126 49 -126 134h78c0 -35 17 -53 48 -53s48 18 48 53h78c0 -85 -41 -134 -126 -134z" />
    <glyph glyph-name="macron" unicode="&#xaf;" horiz-adv-x="320" 
d="M40 578v86h240v-86h-240z" />
    <glyph glyph-name="dotaccent" unicode="&#x2d9;" horiz-adv-x="186" 
d="M40 565v106h106v-106h-106z" />
    <glyph glyph-name="hungarumlaut" unicode="&#x2dd;" horiz-adv-x="370" 
d="M40 565l14 120h113l-48 -120h-79zM175 565l38 120h117l-72 -120h-83z" />
    <glyph glyph-name="cedilla" unicode="&#xb8;" horiz-adv-x="260" 
d="M160 0l-12 -41c43 -5 72 -24 72 -74c0 -58 -29 -86 -111 -86h-69v62h67c28 0 35 8 35 24c0 17 -7 24 -35 24h-33l28 91h58z" />
    <glyph glyph-name="ogonek" unicode="&#x2db;" horiz-adv-x="221" 
d="M100 0h81c-26 -22 -42 -42 -42 -70c0 -19 13 -26 33 -26h9v-78h-57c-51 0 -84 22 -84 71c0 37 21 76 60 103z" />
    <glyph glyph-name="commaaccent" horiz-adv-x="228" 
d="M30 -190l36 130h132l-73 -130h-95z" />
    <glyph glyph-name="Aacute" unicode="&#xc1;" horiz-adv-x="537" 
d="M382 0l-27 124h-175l-26 -124h-144l169 650h177l171 -650h-145zM267 529l-61 -293h123l-60 293h-2zM226 715l28 120h127l-72 -120h-83z" />
    <glyph glyph-name="Agrave" unicode="&#xc0;" horiz-adv-x="537" 
d="M382 0l-27 124h-175l-26 -124h-144l169 650h177l171 -650h-145zM267 529l-61 -293h123l-60 293h-2zM295 835l28 -120h-83l-72 120h127z" />
    <glyph glyph-name="Acircumflex" unicode="&#xc2;" horiz-adv-x="537" 
d="M382 0l-27 124h-175l-26 -124h-144l169 650h177l171 -650h-145zM267 529l-61 -293h123l-60 293h-2zM342 835l54 -120h-88l-40 54l-39 -54h-88l54 120h147z" />
    <glyph glyph-name="Adieresis" unicode="&#xc4;" horiz-adv-x="537" 
d="M382 0l-27 124h-175l-26 -124h-144l169 650h177l171 -650h-145zM267 529l-61 -293h123l-60 293h-2zM132 715v106h106v-106h-106zM298 715v106h106v-106h-106z" />
    <glyph glyph-name="Atilde" unicode="&#xc3;" horiz-adv-x="537" 
d="M382 0l-27 124h-175l-26 -124h-144l169 650h177l171 -650h-145zM267 529l-61 -293h123l-60 293h-2zM320 800c19 0 31 10 31 32h78c0 -88 -30 -123 -94 -123c-58 0 -74 43 -119 43c-19 0 -31 -9 -31 -32h-78c0 90 30 123 94 123c58 0 76 -43 119 -43z" />
    <glyph glyph-name="Aring" unicode="&#xc5;" horiz-adv-x="537" 
d="M382 0l-27 124h-175l-26 -124h-144l169 650h177l171 -650h-145zM267 529l-61 -293h123l-60 293h-2zM268 893c70 0 111 -31 111 -93s-41 -95 -111 -95s-111 33 -111 95s41 93 111 93zM268 763c27 0 39 13 39 37c0 22 -12 35 -39 35s-39 -13 -39 -35c0 -24 12 -37 39 -37z
" />
    <glyph glyph-name="Amacron" unicode="&#x100;" horiz-adv-x="537" 
d="M382 0l-27 124h-175l-26 -124h-144l169 650h177l171 -650h-145zM267 529l-61 -293h123l-60 293h-2zM148 728v86h240v-86h-240z" />
    <glyph glyph-name="Abreve" unicode="&#x102;" horiz-adv-x="537" 
d="M382 0l-27 124h-175l-26 -124h-144l169 650h177l171 -650h-145zM267 529l-61 -293h123l-60 293h-2zM268 705c-85 0 -126 49 -126 134h78c0 -35 17 -53 48 -53s48 18 48 53h78c0 -85 -41 -134 -126 -134z" />
    <glyph glyph-name="Aogonek" unicode="&#x104;" horiz-adv-x="537" 
d="M382 0l-27 124h-175l-26 -124h-144l169 650h177l171 -650c-26 -22 -42 -42 -42 -70c0 -19 13 -26 33 -26h9v-78h-57c-51 0 -84 22 -84 71c0 37 21 76 60 103h-64zM267 529l-61 -293h123l-60 293h-2z" />
    <glyph glyph-name="AE" unicode="&#xc6;" horiz-adv-x="822" 
d="M392 0v124h-184l-54 -124h-144l302 650h480v-114h-260v-151h226v-110h-226v-161h260v-114h-400zM390 532l-130 -296h132v296h-2z" />
    <glyph glyph-name="Bdotaccent" unicode="&#x1e02;" horiz-adv-x="558" 
d="M60 0v650h233c165 0 209 -51 209 -168c0 -71 -31 -119 -73 -142c64 -25 94 -78 94 -157c0 -112 -60 -183 -217 -183h-246zM200 114h102c53 0 80 21 80 80c0 65 -34 81 -83 81h-99v-161zM289 536h-89v-151h88c53 0 75 20 75 76c0 48 -21 75 -74 75zM226 715v106h106v-106
h-106z" />
    <glyph glyph-name="Cacute" unicode="&#x106;" horiz-adv-x="550" 
d="M279 102c64 0 91 27 91 104h138c0 -152 -67 -218 -229 -218c-161 0 -234 73 -234 233v208c0 165 78 233 234 233c162 0 229 -65 229 -217h-138c0 73 -27 103 -91 103c-61 0 -94 -26 -94 -98v-250c0 -72 35 -98 94 -98zM236 715l28 120h127l-72 -120h-83z" />
    <glyph glyph-name="Ccircumflex" unicode="&#x108;" horiz-adv-x="550" 
d="M279 102c64 0 91 27 91 104h138c0 -152 -67 -218 -229 -218c-161 0 -234 73 -234 233v208c0 165 78 233 234 233c162 0 229 -65 229 -217h-138c0 73 -27 103 -91 103c-61 0 -94 -26 -94 -98v-250c0 -72 35 -98 94 -98zM352 835l54 -120h-88l-40 54l-39 -54h-88l54 120
h147z" />
    <glyph glyph-name="Ccaron" unicode="&#x10c;" horiz-adv-x="550" 
d="M279 102c64 0 91 27 91 104h138c0 -152 -67 -218 -229 -218c-161 0 -234 73 -234 233v208c0 165 78 233 234 233c162 0 229 -65 229 -217h-138c0 73 -27 103 -91 103c-61 0 -94 -26 -94 -98v-250c0 -72 35 -98 94 -98zM405 845l-54 -120h-147l-54 120h88l39 -54l40 54h88
z" />
    <glyph glyph-name="Ccedilla" unicode="&#xc7;" horiz-adv-x="550" 
d="M279 102c64 0 91 27 91 104h138c0 -145 -61 -211 -207 -217l-8 -30c43 -5 72 -24 72 -74c0 -58 -29 -86 -111 -86h-69v62h67c28 0 35 8 35 24c0 17 -7 24 -35 24h-33l24 80c-136 11 -198 84 -198 232v208c0 165 78 233 234 233c162 0 229 -65 229 -217h-138
c0 73 -27 103 -91 103c-61 0 -94 -26 -94 -98v-250c0 -72 35 -98 94 -98z" />
    <glyph glyph-name="Cdotaccent" unicode="&#x10a;" horiz-adv-x="550" 
d="M279 102c64 0 91 27 91 104h138c0 -152 -67 -218 -229 -218c-161 0 -234 73 -234 233v208c0 165 78 233 234 233c162 0 229 -65 229 -217h-138c0 73 -27 103 -91 103c-61 0 -94 -26 -94 -98v-250c0 -72 35 -98 94 -98zM228 715v106h106v-106h-106z" />
    <glyph glyph-name="Dcaron" unicode="&#x10e;" horiz-adv-x="572" 
d="M279 536h-79v-422h79c89 0 108 39 108 108v214c0 97 -37 100 -108 100zM282 0h-222v650h222c163 0 245 -40 245 -230v-188c0 -190 -82 -232 -245 -232zM395 845l-54 -120h-147l-54 120h88l39 -54l40 54h88z" />
    <glyph glyph-name="Ddotaccent" unicode="&#x1e0a;" horiz-adv-x="572" 
d="M279 536h-79v-422h79c89 0 108 39 108 108v214c0 97 -37 100 -108 100zM282 0h-222v650h222c163 0 245 -40 245 -230v-188c0 -190 -82 -232 -245 -232zM213 715v106h106v-106h-106z" />
    <glyph glyph-name="Dcroat" unicode="&#x110;" horiz-adv-x="572" 
d="M282 0h-222v283h-52v93h52v274h222c163 0 245 -40 245 -230v-188c0 -190 -82 -232 -245 -232zM279 536h-79v-160h90v-93h-90v-169h79c89 0 108 39 108 108v214c0 97 -37 100 -108 100z" />
    <glyph glyph-name="Eth" unicode="&#xd0;" horiz-adv-x="572" 
d="M282 0h-222v283h-52v93h52v274h222c163 0 245 -40 245 -230v-188c0 -190 -82 -232 -245 -232zM279 536h-79v-160h90v-93h-90v-169h79c89 0 108 39 108 108v214c0 97 -37 100 -108 100z" />
    <glyph glyph-name="Eacute" unicode="&#xc9;" horiz-adv-x="503" 
d="M60 0v650h398v-114h-258v-151h224v-110h-224v-161h258v-114h-398zM221 715l28 120h127l-72 -120h-83z" />
    <glyph glyph-name="Egrave" unicode="&#xc8;" horiz-adv-x="503" 
d="M60 0v650h398v-114h-258v-151h224v-110h-224v-161h258v-114h-398zM301 835l28 -120h-83l-72 120h127z" />
    <glyph glyph-name="Ecircumflex" unicode="&#xca;" horiz-adv-x="503" 
d="M60 0v650h398v-114h-258v-151h224v-110h-224v-161h258v-114h-398zM341 835l54 -120h-88l-40 54l-39 -54h-88l54 120h147z" />
    <glyph glyph-name="Edieresis" unicode="&#xcb;" horiz-adv-x="503" 
d="M60 0v650h398v-114h-258v-151h224v-110h-224v-161h258v-114h-398zM124 715v106h106v-106h-106zM290 715v106h106v-106h-106z" />
    <glyph glyph-name="Ecaron" unicode="&#x11a;" horiz-adv-x="503" 
d="M60 0v650h398v-114h-258v-151h224v-110h-224v-161h258v-114h-398zM390 845l-54 -120h-147l-54 120h88l39 -54l40 54h88z" />
    <glyph glyph-name="Emacron" unicode="&#x112;" horiz-adv-x="503" 
d="M60 0v650h398v-114h-258v-151h224v-110h-224v-161h258v-114h-398zM141 728v86h240v-86h-240z" />
    <glyph glyph-name="Ebreve" unicode="&#x114;" horiz-adv-x="503" 
d="M60 0v650h398v-114h-258v-151h224v-110h-224v-161h258v-114h-398zM262 705c-85 0 -126 49 -126 134h78c0 -35 17 -53 48 -53s48 18 48 53h78c0 -85 -41 -134 -126 -134z" />
    <glyph glyph-name="Eogonek" unicode="&#x118;" horiz-adv-x="503" 
d="M60 0v650h398v-114h-258v-151h224v-110h-224v-161h258v-114c-26 -22 -42 -42 -42 -70c0 -19 13 -26 33 -26h9v-78h-57c-51 0 -84 22 -84 71c0 37 21 76 60 103h-317z" />
    <glyph glyph-name="Edotaccent" unicode="&#x116;" horiz-adv-x="503" 
d="M60 0v650h398v-114h-258v-151h224v-110h-224v-161h258v-114h-398zM208 715v106h106v-106h-106z" />
    <glyph glyph-name="Fdotaccent" unicode="&#x1e1e;" horiz-adv-x="468" 
d="M200 0h-140v650h378v-114h-238v-151h203v-110h-203v-275zM198 715v106h106v-106h-106z" />
    <glyph glyph-name="Gcircumflex" unicode="&#x11c;" horiz-adv-x="570" 
d="M279 -12c-161 0 -234 71 -234 233v207c0 164 81 234 234 234c162 0 231 -65 231 -217h-140c0 67 -27 103 -91 103c-61 0 -94 -26 -94 -98v-250c0 -76 36 -98 99 -98c64 0 96 27 96 105v68h-103v110h243v-385h-68l-23 43c-39 -37 -84 -55 -150 -55zM356 835l54 -120h-88
l-40 54l-39 -54h-88l54 120h147z" />
    <glyph glyph-name="Gbreve" unicode="&#x11e;" horiz-adv-x="570" 
d="M279 -12c-161 0 -234 71 -234 233v207c0 164 81 234 234 234c162 0 231 -65 231 -217h-140c0 67 -27 103 -91 103c-61 0 -94 -26 -94 -98v-250c0 -76 36 -98 99 -98c64 0 96 27 96 105v68h-103v110h243v-385h-68l-23 43c-39 -37 -84 -55 -150 -55zM277 705
c-85 0 -126 49 -126 134h78c0 -35 17 -53 48 -53s48 18 48 53h78c0 -85 -41 -134 -126 -134z" />
    <glyph glyph-name="Gdotaccent" unicode="&#x120;" horiz-adv-x="570" 
d="M279 -12c-161 0 -234 71 -234 233v207c0 164 81 234 234 234c162 0 231 -65 231 -217h-140c0 67 -27 103 -91 103c-61 0 -94 -26 -94 -98v-250c0 -76 36 -98 99 -98c64 0 96 27 96 105v68h-103v110h243v-385h-68l-23 43c-39 -37 -84 -55 -150 -55zM228 715v106h106v-106
h-106z" />
    <glyph glyph-name="Gcommaaccent" unicode="&#x122;" horiz-adv-x="570" 
d="M279 -12c-161 0 -234 71 -234 233v207c0 164 81 234 234 234c162 0 231 -65 231 -217h-140c0 67 -27 103 -91 103c-61 0 -94 -26 -94 -98v-250c0 -76 36 -98 99 -98c64 0 96 27 96 105v68h-103v110h243v-385h-68l-23 43c-39 -37 -84 -55 -150 -55zM187 -190l36 130h132
l-73 -130h-95z" />
    <glyph glyph-name="Hcircumflex" unicode="&#x124;" horiz-adv-x="579" 
d="M519 650v-650h-140v275h-179v-275h-140v650h140v-265h179v265h140zM363 835l54 -120h-88l-40 54l-39 -54h-88l54 120h147z" />
    <glyph glyph-name="Hbar" unicode="&#x126;" horiz-adv-x="579" 
d="M519 650v-87h50v-80h-50v-483h-140v275h-179v-275h-140v483h-50v80h50v87h140v-87h179v87h140zM200 385h179v98h-179v-98z" />
    <glyph glyph-name="Iacute" unicode="&#xcd;" horiz-adv-x="260" 
d="M60 0v650h140v-650h-140zM87 715l28 120h127l-72 -120h-83z" />
    <glyph glyph-name="Igrave" unicode="&#xcc;" horiz-adv-x="260" 
d="M60 0v650h140v-650h-140zM144 835l28 -120h-83l-72 120h127z" />
    <glyph glyph-name="Icircumflex" unicode="&#xce;" horiz-adv-x="260" 
d="M60 0v650h140v-650h-140zM204 835l54 -120h-88l-40 54l-39 -54h-88l54 120h147z" />
    <glyph glyph-name="Idieresis" unicode="&#xcf;" horiz-adv-x="260" 
d="M60 0v650h140v-650h-140zM-6 715v106h106v-106h-106zM160 715v106h106v-106h-106z" />
    <glyph glyph-name="Itilde" unicode="&#x128;" horiz-adv-x="260" 
d="M184 782c13 0 22 10 22 34h76c0 -92 -30 -120 -88 -120c-63 0 -70 46 -109 46c-13 0 -22 -10 -22 -34h-76c0 92 31 120 88 120c63 0 70 -46 109 -46zM60 0v650h140v-650h-140z" />
    <glyph glyph-name="Imacron" unicode="&#x12a;" horiz-adv-x="260" 
d="M5 714v86h250v-86h-250zM60 0v650h140v-650h-140z" />
    <glyph glyph-name="Ibreve" unicode="&#x12c;" horiz-adv-x="260" 
d="M60 0v650h140v-650h-140zM130 705c-85 0 -126 49 -126 134h78c0 -35 17 -53 48 -53s48 18 48 53h78c0 -85 -41 -134 -126 -134z" />
    <glyph glyph-name="Idotaccent" unicode="&#x130;" horiz-adv-x="260" 
d="M60 0v650h140v-650h-140zM77 715v106h106v-106h-106z" />
    <glyph glyph-name="Iogonek" unicode="&#x12e;" horiz-adv-x="260" 
d="M60 0v650h140v-650c-26 -22 -42 -42 -42 -70c0 -19 13 -26 33 -26h9v-78h-57c-51 0 -84 22 -84 71c0 37 21 76 60 103h-59z" />
    <glyph glyph-name="Jcircumflex" unicode="&#x134;" horiz-adv-x="360" 
d="M160 536h-95v114h235v-488c0 -114 -19 -174 -178 -174c-33 0 -67 5 -97 12v114c17 -5 53 -12 78 -12c46 0 57 17 57 58v376zM253 835l54 -120h-88l-40 54l-39 -54h-88l54 120h147z" />
    <glyph glyph-name="Kcommaaccent" unicode="&#x136;" horiz-adv-x="523" 
d="M513 650l-200 -314l205 -336h-160l-158 276v-276h-140v650h140v-266l152 266h161zM182 -190l36 130h132l-73 -130h-95z" />
    <glyph glyph-name="Lacute" unicode="&#x139;" horiz-adv-x="418" 
d="M60 0v650h140v-536h198v-114h-338zM91 715l28 120h127l-72 -120h-83z" />
    <glyph glyph-name="Lcaron" unicode="&#x13d;" horiz-adv-x="418" 
d="M60 0v650h140v-536h198v-114h-338zM253 440v230h110l-29 -230h-81z" />
    <glyph glyph-name="Lcommaaccent" unicode="&#x13b;" horiz-adv-x="418" 
d="M60 0v650h140v-536h198v-114h-338zM129 -190l36 130h132l-73 -130h-95z" />
    <glyph glyph-name="Ldot" unicode="&#x13f;" horiz-adv-x="418" 
d="M246 269v122h122v-122h-122zM60 0v650h140v-536h198v-114h-338z" />
    <glyph glyph-name="Lslash" unicode="&#x141;" horiz-adv-x="429" 
d="M10 308l61 24v318h140v-263l117 46v-96l-117 -46v-177h198v-114h-338v236l-61 -24v96z" />
    <glyph glyph-name="Mdotaccent" unicode="&#x1e40;" horiz-adv-x="727" 
d="M532 0v301l8 199l-123 -500h-107l-123 500l8 -200v-300h-136v650h195l108 -461h3l108 461h195v-650h-136zM310 715v106h106v-106h-106z" />
    <glyph glyph-name="Nacute" unicode="&#x143;" horiz-adv-x="584" 
d="M524 650v-650h-161l-176 453c4 -52 5 -108 5 -179v-274h-132v650h161l176 -453c-3 55 -5 113 -5 184v269h132zM241 715l28 120h127l-72 -120h-83z" />
    <glyph glyph-name="Ntilde" unicode="&#xd1;" horiz-adv-x="584" 
d="M524 650v-650h-161l-176 453c4 -52 5 -108 5 -179v-274h-132v650h161l176 -453c-3 55 -5 113 -5 184v269h132zM349 800c19 0 31 10 31 32h78c0 -88 -30 -123 -94 -123c-58 0 -74 43 -119 43c-19 0 -31 -9 -31 -32h-78c0 90 30 123 94 123c58 0 76 -43 119 -43z" />
    <glyph glyph-name="Ncaron" unicode="&#x147;" horiz-adv-x="584" 
d="M524 650v-650h-161l-176 453c4 -52 5 -108 5 -179v-274h-132v650h161l176 -453c-3 55 -5 113 -5 184v269h132zM419 845l-54 -120h-147l-54 120h88l39 -54l40 54h88z" />
    <glyph glyph-name="Ncommaaccent" unicode="&#x145;" horiz-adv-x="584" 
d="M524 650v-650h-161l-176 453c4 -52 5 -108 5 -179v-274h-132v650h161l176 -453c-3 55 -5 113 -5 184v269h132zM212 -190l36 130h132l-73 -130h-95z" />
    <glyph glyph-name="Eng" unicode="&#x14a;" horiz-adv-x="584" 
d="M524 650v-656c0 -114 -19 -174 -178 -174c-33 0 -67 5 -97 12v114c17 -5 53 -12 78 -12c46 0 57 17 57 58l-197 461c4 -52 5 -108 5 -179v-274h-132v650h160l177 -413c-3 55 -5 113 -5 184v229h132z" />
    <glyph glyph-name="Oacute" unicode="&#xd3;" horiz-adv-x="569" 
d="M384 206v238c0 72 -30 104 -100 104c-68 0 -99 -32 -99 -103v-239c0 -72 30 -104 99 -104c70 0 100 32 100 104zM45 210v230c0 151 71 222 239 222s240 -70 240 -222v-230c0 -151 -72 -222 -240 -222s-239 71 -239 222zM242 715l28 120h127l-72 -120h-83z" />
    <glyph glyph-name="Ograve" unicode="&#xd2;" horiz-adv-x="569" 
d="M384 206v238c0 72 -30 104 -100 104c-68 0 -99 -32 -99 -103v-239c0 -72 30 -104 99 -104c70 0 100 32 100 104zM45 210v230c0 151 71 222 239 222s240 -70 240 -222v-230c0 -151 -72 -222 -240 -222s-239 71 -239 222zM302 835l28 -120h-83l-72 120h127z" />
    <glyph glyph-name="Ocircumflex" unicode="&#xd4;" horiz-adv-x="569" 
d="M384 206v238c0 72 -30 104 -100 104c-68 0 -99 -32 -99 -103v-239c0 -72 30 -104 99 -104c70 0 100 32 100 104zM45 210v230c0 151 71 222 239 222s240 -70 240 -222v-230c0 -151 -72 -222 -240 -222s-239 71 -239 222zM358 835l54 -120h-88l-40 54l-39 -54h-88l54 120
h147z" />
    <glyph glyph-name="Odieresis" unicode="&#xd6;" horiz-adv-x="569" 
d="M384 206v238c0 72 -30 104 -100 104c-68 0 -99 -32 -99 -103v-239c0 -72 30 -104 99 -104c70 0 100 32 100 104zM45 210v230c0 151 71 222 239 222s240 -70 240 -222v-230c0 -151 -72 -222 -240 -222s-239 71 -239 222zM148 715v106h106v-106h-106zM314 715v106h106v-106
h-106z" />
    <glyph glyph-name="Otilde" unicode="&#xd5;" horiz-adv-x="569" 
d="M384 206v238c0 72 -30 104 -100 104c-68 0 -99 -32 -99 -103v-239c0 -72 30 -104 99 -104c70 0 100 32 100 104zM45 210v230c0 151 71 222 239 222s240 -70 240 -222v-230c0 -151 -72 -222 -240 -222s-239 71 -239 222zM341 800c19 0 31 10 31 32h78
c0 -88 -30 -123 -94 -123c-58 0 -74 43 -119 43c-19 0 -31 -9 -31 -32h-78c0 90 30 123 94 123c58 0 76 -43 119 -43z" />
    <glyph glyph-name="Obreve" unicode="&#x14e;" horiz-adv-x="569" 
d="M384 206v238c0 72 -30 104 -100 104c-68 0 -99 -32 -99 -103v-239c0 -72 30 -104 99 -104c70 0 100 32 100 104zM45 210v230c0 151 71 222 239 222s240 -70 240 -222v-230c0 -151 -72 -222 -240 -222s-239 71 -239 222zM284 705c-85 0 -126 49 -126 134h78
c0 -35 17 -53 48 -53s48 18 48 53h78c0 -85 -41 -134 -126 -134z" />
    <glyph glyph-name="Omacron" unicode="&#x14c;" horiz-adv-x="569" 
d="M384 206v238c0 72 -30 104 -100 104c-68 0 -99 -32 -99 -103v-239c0 -72 30 -104 99 -104c70 0 100 32 100 104zM45 210v230c0 151 71 222 239 222s240 -70 240 -222v-230c0 -151 -72 -222 -240 -222s-239 71 -239 222zM164 728v86h240v-86h-240z" />
    <glyph glyph-name="Ohungarumlaut" unicode="&#x150;" horiz-adv-x="569" 
d="M384 206v238c0 72 -30 104 -100 104c-68 0 -99 -32 -99 -103v-239c0 -72 30 -104 99 -104c70 0 100 32 100 104zM45 210v230c0 151 71 222 239 222s240 -70 240 -222v-230c0 -151 -72 -222 -240 -222s-239 71 -239 222zM182 715l14 120h113l-48 -120h-79zM317 715l38 120
h117l-72 -120h-83z" />
    <glyph glyph-name="Oslash" unicode="&#xd8;" horiz-adv-x="569" 
d="M45 210v230c0 151 71 222 239 222c61 0 109 -9 146 -28l22 36h84l-51 -83c26 -36 39 -85 39 -147v-230c0 -151 -72 -222 -240 -222c-60 0 -108 9 -145 27l-21 -35h-85l50 83c-26 35 -38 84 -38 147zM185 445v-215l177 291c-16 18 -42 27 -78 27c-68 0 -99 -32 -99 -103z
M384 206v213l-177 -291c16 -18 42 -26 77 -26c70 0 100 32 100 104z" />
    <glyph glyph-name="OE" unicode="&#x152;" horiz-adv-x="807" 
d="M284 114h90v422h-90c-68 0 -99 -32 -99 -103v-215c0 -72 30 -104 99 -104zM284 650h478v-114h-248v-151h214v-110h-214v-161h248v-114h-478c-168 0 -239 71 -239 222v206c0 151 71 222 239 222z" />
    <glyph glyph-name="Thorn" unicode="&#xde;" horiz-adv-x="550" 
d="M60 0v650h140v-111h83c155 0 232 -39 232 -214c0 -164 -74 -212 -230 -212h-85v-113h-140zM200 227h83c64 0 92 20 92 99c0 76 -27 99 -91 99h-84v-198z" />
    <glyph glyph-name="Pdotaccent" unicode="&#x1e56;" horiz-adv-x="550" 
d="M200 338h83c64 0 92 20 92 99c0 76 -27 99 -91 99h-84v-198zM60 0v650h223c155 0 232 -37 232 -212c0 -164 -74 -210 -230 -210h-85v-228h-140zM222 715v106h106v-106h-106z" />
    <glyph glyph-name="Racute" unicode="&#x154;" horiz-adv-x="560" 
d="M60 0v650h223c158 0 233 -37 233 -212c0 -107 -35 -166 -105 -193l119 -245h-150l-104 228h-76v-228h-140zM200 338h83c64 0 92 20 92 99c0 76 -27 99 -91 99h-84v-198zM226 715l28 120h127l-72 -120h-83z" />
    <glyph glyph-name="Rcaron" unicode="&#x158;" horiz-adv-x="560" 
d="M60 0v650h223c158 0 233 -37 233 -212c0 -107 -35 -166 -105 -193l119 -245h-150l-104 228h-76v-228h-140zM200 338h83c64 0 92 20 92 99c0 76 -27 99 -91 99h-84v-198zM396 845l-54 -120h-147l-54 120h88l39 -54l40 54h88z" />
    <glyph glyph-name="Rcommaaccent" unicode="&#x156;" horiz-adv-x="560" 
d="M60 0v650h223c158 0 233 -37 233 -212c0 -107 -35 -166 -105 -193l119 -245h-150l-104 228h-76v-228h-140zM200 338h83c64 0 92 20 92 99c0 76 -27 99 -91 99h-84v-198zM187 -190l36 130h132l-73 -130h-95z" />
    <glyph glyph-name="Sacute" unicode="&#x15a;" horiz-adv-x="557" 
d="M372 193c0 50 -19 68 -133 88c-128 22 -196 65 -196 193c0 115 72 188 230 188c164 0 229 -53 229 -192h-140c0 55 -27 78 -90 78s-87 -26 -87 -75c0 -59 21 -81 119 -97c162 -26 208 -71 208 -181c0 -154 -91 -207 -238 -207c-170 0 -239 59 -239 206h140
c0 -67 30 -92 99 -92c71 0 98 23 98 91zM230 715l28 120h127l-72 -120h-83z" />
    <glyph glyph-name="Scircumflex" unicode="&#x15c;" horiz-adv-x="557" 
d="M372 193c0 50 -19 68 -133 88c-128 22 -196 65 -196 193c0 115 72 188 230 188c164 0 229 -53 229 -192h-140c0 55 -27 78 -90 78s-87 -26 -87 -75c0 -59 21 -81 119 -97c162 -26 208 -71 208 -181c0 -154 -91 -207 -238 -207c-170 0 -239 59 -239 206h140
c0 -67 30 -92 99 -92c71 0 98 23 98 91zM352 835l54 -120h-88l-40 54l-39 -54h-88l54 120h147z" />
    <glyph glyph-name="Scaron" unicode="&#x160;" horiz-adv-x="557" 
d="M372 193c0 50 -19 68 -133 88c-128 22 -196 65 -196 193c0 115 72 188 230 188c164 0 229 -53 229 -192h-140c0 55 -27 78 -90 78s-87 -26 -87 -75c0 -59 21 -81 119 -97c162 -26 208 -71 208 -181c0 -154 -91 -207 -238 -207c-170 0 -239 59 -239 206h140
c0 -67 30 -92 99 -92c71 0 98 23 98 91zM406 845l-54 -120h-147l-54 120h88l39 -54l40 54h88z" />
    <glyph glyph-name="Sdotaccent" unicode="&#x1e60;" horiz-adv-x="557" 
d="M372 193c0 50 -19 68 -133 88c-128 22 -196 65 -196 193c0 115 72 188 230 188c164 0 229 -53 229 -192h-140c0 55 -27 78 -90 78s-87 -26 -87 -75c0 -59 21 -81 119 -97c162 -26 208 -71 208 -181c0 -154 -91 -207 -238 -207c-170 0 -239 59 -239 206h140
c0 -67 30 -92 99 -92c71 0 98 23 98 91zM225 715v106h106v-106h-106z" />
    <glyph glyph-name="Scedilla" unicode="&#x15e;" horiz-adv-x="557" 
d="M372 193c0 50 -19 68 -133 88c-128 22 -196 65 -196 193c0 115 72 188 230 188c164 0 229 -53 229 -192h-140c0 55 -27 78 -90 78s-87 -26 -87 -75c0 -59 21 -81 119 -97c162 -26 208 -71 208 -181c0 -147 -83 -201 -217 -206l-8 -30c43 -5 72 -24 72 -74
c0 -58 -29 -86 -111 -86h-69v62h67c28 0 35 8 35 24c0 17 -7 24 -35 24h-33l24 80c-143 9 -202 69 -202 205h140c0 -67 30 -92 99 -92c71 0 98 23 98 91z" />
    <glyph glyph-name="Scommaaccent" unicode="&#x218;" horiz-adv-x="557" 
d="M372 193c0 50 -19 68 -133 88c-128 22 -196 65 -196 193c0 115 72 188 230 188c164 0 229 -53 229 -192h-140c0 55 -27 78 -90 78s-87 -26 -87 -75c0 -59 21 -81 119 -97c162 -26 208 -71 208 -181c0 -154 -91 -207 -238 -207c-170 0 -239 59 -239 206h140
c0 -67 30 -92 99 -92c71 0 98 23 98 91zM178 -190l36 130h132l-73 -130h-95z" />
    <glyph glyph-name="Tcaron" unicode="&#x164;" horiz-adv-x="458" 
d="M159 0v536h-144v114h428v-114h-144v-536h-140zM356 845l-54 -120h-147l-54 120h88l39 -54l40 54h88z" />
    <glyph glyph-name="Tdotaccent" unicode="&#x1e6a;" horiz-adv-x="458" 
d="M159 0v536h-144v114h428v-114h-144v-536h-140zM176 715v106h106v-106h-106z" />
    <glyph glyph-name="Tcommaaccent" unicode="&#x21a;" horiz-adv-x="458" 
d="M159 0v536h-144v114h428v-114h-144v-536h-140zM125 -190l36 130h132l-73 -130h-95z" />
    <glyph glyph-name="Tbar" unicode="&#x166;" horiz-adv-x="458" 
d="M74 251v100h85v185h-144v114h428v-114h-144v-185h85v-100h-85v-251h-140v251h-85z" />
    <glyph glyph-name="Uacute" unicode="&#xda;" horiz-adv-x="575" 
d="M55 650h140v-449c0 -69 26 -98 93 -98s92 29 92 98v449h140v-442c0 -167 -80 -219 -232 -219c-153 0 -233 52 -233 219v442zM249 715l28 120h127l-72 -120h-83z" />
    <glyph glyph-name="Ugrave" unicode="&#xd9;" horiz-adv-x="575" 
d="M55 650h140v-449c0 -69 26 -98 93 -98s92 29 92 98v449h140v-442c0 -167 -80 -219 -232 -219c-153 0 -233 52 -233 219v442zM301 835l28 -120h-83l-72 120h127z" />
    <glyph glyph-name="Ucircumflex" unicode="&#xdb;" horiz-adv-x="575" 
d="M55 650h140v-449c0 -69 26 -98 93 -98s92 29 92 98v449h140v-442c0 -167 -80 -219 -232 -219c-153 0 -233 52 -233 219v442zM361 835l54 -120h-88l-40 54l-39 -54h-88l54 120h147z" />
    <glyph glyph-name="Udieresis" unicode="&#xdc;" horiz-adv-x="575" 
d="M55 650h140v-449c0 -69 26 -98 93 -98s92 29 92 98v449h140v-442c0 -167 -80 -219 -232 -219c-153 0 -233 52 -233 219v442zM151 715v106h106v-106h-106zM317 715v106h106v-106h-106z" />
    <glyph glyph-name="Utilde" unicode="&#x168;" horiz-adv-x="575" 
d="M55 650h140v-449c0 -69 26 -98 93 -98s92 29 92 98v449h140v-442c0 -167 -80 -219 -232 -219c-153 0 -233 52 -233 219v442zM344 800c19 0 31 10 31 32h78c0 -88 -30 -123 -94 -123c-58 0 -74 43 -119 43c-19 0 -31 -9 -31 -32h-78c0 90 30 123 94 123
c58 0 76 -43 119 -43z" />
    <glyph glyph-name="Uring" unicode="&#x16e;" horiz-adv-x="575" 
d="M55 650h140v-449c0 -69 26 -98 93 -98s92 29 92 98v449h140v-442c0 -167 -80 -219 -232 -219c-153 0 -233 52 -233 219v442zM287 893c70 0 111 -31 111 -93s-41 -95 -111 -95s-111 33 -111 95s41 93 111 93zM287 763c27 0 39 13 39 37c0 22 -12 35 -39 35
s-39 -13 -39 -35c0 -24 12 -37 39 -37z" />
    <glyph glyph-name="Ubreve" unicode="&#x16c;" horiz-adv-x="575" 
d="M55 650h140v-449c0 -69 26 -98 93 -98s92 29 92 98v449h140v-442c0 -167 -80 -219 -232 -219c-153 0 -233 52 -233 219v442zM287 705c-85 0 -126 49 -126 134h78c0 -35 17 -53 48 -53s48 18 48 53h78c0 -85 -41 -134 -126 -134z" />
    <glyph glyph-name="Umacron" unicode="&#x16a;" horiz-adv-x="575" 
d="M55 650h140v-449c0 -69 26 -98 93 -98s92 29 92 98v449h140v-442c0 -167 -80 -219 -232 -219c-153 0 -233 52 -233 219v442zM166 728v86h240v-86h-240z" />
    <glyph glyph-name="Uhungarumlaut" unicode="&#x170;" horiz-adv-x="575" 
d="M55 650h140v-449c0 -69 26 -98 93 -98s92 29 92 98v449h140v-442c0 -167 -80 -219 -232 -219c-153 0 -233 52 -233 219v442zM182 715l14 120h113l-48 -120h-79zM317 715l38 120h117l-72 -120h-83z" />
    <glyph glyph-name="Uogonek" unicode="&#x172;" horiz-adv-x="575" 
d="M55 650h140v-449c0 -69 26 -98 93 -98s92 29 92 98v449h140v-442c0 -125 -45 -185 -130 -208c-26 -22 -42 -42 -42 -70c0 -19 13 -26 33 -26h9v-78h-57c-51 0 -84 22 -84 71c0 32 15 66 45 92h-6c-153 0 -233 52 -233 219v442z" />
    <glyph glyph-name="Wacute" unicode="&#x1e82;" horiz-adv-x="819" 
d="M577 121l77 529h140l-119 -650h-189l-76 527l-76 -527h-189l-120 650h141l76 -529h2l81 529h170l80 -529h2zM369 715l28 120h127l-72 -120h-83z" />
    <glyph glyph-name="Wgrave" unicode="&#x1e80;" horiz-adv-x="819" 
d="M577 121l77 529h140l-119 -650h-189l-76 527l-76 -527h-189l-120 650h141l76 -529h2l81 529h170l80 -529h2zM423 835l28 -120h-83l-72 120h127z" />
    <glyph glyph-name="Wcircumflex" unicode="&#x174;" horiz-adv-x="819" 
d="M577 121l77 529h140l-119 -650h-189l-76 527l-76 -527h-189l-120 650h141l76 -529h2l81 529h170l80 -529h2zM483 835l54 -120h-88l-40 54l-39 -54h-88l54 120h147z" />
    <glyph glyph-name="Wdieresis" unicode="&#x1e84;" horiz-adv-x="819" 
d="M577 121l77 529h140l-119 -650h-189l-76 527l-76 -527h-189l-120 650h141l76 -529h2l81 529h170l80 -529h2zM273 715v106h106v-106h-106zM439 715v106h106v-106h-106z" />
    <glyph glyph-name="Yacute" unicode="&#xdd;" horiz-adv-x="528" 
d="M194 0v239l-184 411h151l102 -285h2l102 285h151l-184 -411v-239h-140zM226 715l28 120h127l-72 -120h-83z" />
    <glyph glyph-name="Ygrave" unicode="&#x1ef2;" horiz-adv-x="528" 
d="M194 0v239l-184 411h151l102 -285h2l102 285h151l-184 -411v-239h-140zM281 835l28 -120h-83l-72 120h127z" />
    <glyph glyph-name="Ycircumflex" unicode="&#x176;" horiz-adv-x="528" 
d="M194 0v239l-184 411h151l102 -285h2l102 285h151l-184 -411v-239h-140zM337 835l54 -120h-88l-40 54l-39 -54h-88l54 120h147z" />
    <glyph glyph-name="Ydieresis" unicode="&#x178;" horiz-adv-x="528" 
d="M194 0v239l-184 411h151l102 -285h2l102 285h151l-184 -411v-239h-140zM128 715v106h106v-106h-106zM294 715v106h106v-106h-106z" />
    <glyph glyph-name="Zacute" unicode="&#x179;" horiz-adv-x="507" 
d="M50 536v114h412v-99l-264 -437h274v-114h-432v99l262 437h-252zM211 715l28 120h127l-72 -120h-83z" />
    <glyph glyph-name="Zcaron" unicode="&#x17d;" horiz-adv-x="507" 
d="M50 536v114h412v-99l-264 -437h274v-114h-432v99l262 437h-252zM381 845l-54 -120h-147l-54 120h88l39 -54l40 54h88z" />
    <glyph glyph-name="Zdotaccent" unicode="&#x17b;" horiz-adv-x="507" 
d="M50 536v114h412v-99l-264 -437h274v-114h-432v99l262 437h-252zM200 715v106h106v-106h-106z" />
    <glyph glyph-name="aacute" unicode="&#xe1;" horiz-adv-x="525" 
d="M227 98c44 0 82 15 112 41v78l-114 -13c-37 -4 -54 -24 -54 -55c0 -34 23 -51 56 -51zM35 136c0 88 45 140 163 148l141 10v44c0 46 -19 64 -76 64c-58 0 -76 -20 -76 -65h-134c0 115 59 175 209 175c155 0 213 -57 213 -174v-338h-99l-23 43c-46 -37 -96 -55 -153 -55
c-111 0 -165 56 -165 148zM221 565l28 120h127l-72 -120h-83z" />
    <glyph glyph-name="agrave" unicode="&#xe0;" horiz-adv-x="525" 
d="M227 98c44 0 82 15 112 41v78l-114 -13c-37 -4 -54 -24 -54 -55c0 -34 23 -51 56 -51zM35 136c0 88 45 140 163 148l141 10v44c0 46 -19 64 -76 64c-58 0 -76 -20 -76 -65h-134c0 115 59 175 209 175c155 0 213 -57 213 -174v-338h-99l-23 43c-46 -37 -96 -55 -153 -55
c-111 0 -165 56 -165 148zM303 685l28 -120h-83l-72 120h127z" />
    <glyph glyph-name="acircumflex" unicode="&#xe2;" horiz-adv-x="525" 
d="M227 98c44 0 82 15 112 41v78l-114 -13c-37 -4 -54 -24 -54 -55c0 -34 23 -51 56 -51zM35 136c0 88 45 140 163 148l141 10v44c0 46 -19 64 -76 64c-58 0 -76 -20 -76 -65h-134c0 115 59 175 209 175c155 0 213 -57 213 -174v-338h-99l-23 43c-46 -37 -96 -55 -153 -55
c-111 0 -165 56 -165 148zM336 685l54 -120h-88l-40 54l-39 -54h-88l54 120h147z" />
    <glyph glyph-name="adieresis" unicode="&#xe4;" horiz-adv-x="525" 
d="M227 98c44 0 82 15 112 41v78l-114 -13c-37 -4 -54 -24 -54 -55c0 -34 23 -51 56 -51zM35 136c0 88 45 140 163 148l141 10v44c0 46 -19 64 -76 64c-58 0 -76 -20 -76 -65h-134c0 115 59 175 209 175c155 0 213 -57 213 -174v-338h-99l-23 43c-46 -37 -96 -55 -153 -55
c-111 0 -165 56 -165 148zM126 565v106h106v-106h-106zM292 565v106h106v-106h-106z" />
    <glyph glyph-name="atilde" unicode="&#xe3;" horiz-adv-x="525" 
d="M227 98c44 0 82 15 112 41v78l-114 -13c-37 -4 -54 -24 -54 -55c0 -34 23 -51 56 -51zM35 136c0 88 45 140 163 148l141 10v44c0 46 -19 64 -76 64c-58 0 -76 -20 -76 -65h-134c0 115 59 175 209 175c155 0 213 -57 213 -174v-338h-99l-23 43c-46 -37 -96 -55 -153 -55
c-111 0 -165 56 -165 148zM319 650c19 0 31 10 31 32h78c0 -88 -30 -123 -94 -123c-58 0 -74 43 -119 43c-19 0 -31 -9 -31 -32h-78c0 90 30 123 94 123c58 0 76 -43 119 -43z" />
    <glyph glyph-name="aring" unicode="&#xe5;" horiz-adv-x="525" 
d="M227 98c44 0 82 15 112 41v78l-114 -13c-37 -4 -54 -24 -54 -55c0 -34 23 -51 56 -51zM35 136c0 88 45 140 163 148l141 10v44c0 46 -19 64 -76 64c-58 0 -76 -20 -76 -65h-134c0 115 59 175 209 175c155 0 213 -57 213 -174v-338h-99l-23 43c-46 -37 -96 -55 -153 -55
c-111 0 -165 56 -165 148zM263 743c70 0 111 -31 111 -93s-41 -95 -111 -95s-111 33 -111 95s41 93 111 93zM263 613c27 0 39 13 39 37c0 22 -12 35 -39 35s-39 -13 -39 -35c0 -24 12 -37 39 -37z" />
    <glyph glyph-name="amacron" unicode="&#x101;" horiz-adv-x="525" 
d="M227 98c44 0 82 15 112 41v78l-114 -13c-37 -4 -54 -24 -54 -55c0 -34 23 -51 56 -51zM35 136c0 88 45 140 163 148l141 10v44c0 46 -19 64 -76 64c-58 0 -76 -20 -76 -65h-134c0 115 59 175 209 175c155 0 213 -57 213 -174v-338h-99l-23 43c-46 -37 -96 -55 -153 -55
c-111 0 -165 56 -165 148zM145 578v86h240v-86h-240z" />
    <glyph glyph-name="abreve" unicode="&#x103;" horiz-adv-x="525" 
d="M227 98c44 0 82 15 112 41v78l-114 -13c-37 -4 -54 -24 -54 -55c0 -34 23 -51 56 -51zM35 136c0 88 45 140 163 148l141 10v44c0 46 -19 64 -76 64c-58 0 -76 -20 -76 -65h-134c0 115 59 175 209 175c155 0 213 -57 213 -174v-338h-99l-23 43c-46 -37 -96 -55 -153 -55
c-111 0 -165 56 -165 148zM264 555c-85 0 -126 49 -126 134h78c0 -35 17 -53 48 -53s48 18 48 53h78c0 -85 -41 -134 -126 -134z" />
    <glyph glyph-name="aogonek" unicode="&#x105;" horiz-adv-x="525" 
d="M334 -103c0 33 16 68 47 94l-28 52c-46 -37 -96 -55 -153 -55c-111 0 -165 56 -165 148c0 88 45 140 163 148l141 10v44c0 46 -19 64 -76 64c-58 0 -76 -20 -76 -65h-134c0 115 59 175 209 175c155 0 213 -57 213 -174v-338c-26 -22 -42 -42 -42 -70c0 -19 13 -26 33 -26
h9v-78h-57c-51 0 -84 22 -84 71zM227 98c44 0 82 15 112 41v78l-114 -13c-37 -4 -54 -24 -54 -55c0 -34 23 -51 56 -51z" />
    <glyph glyph-name="ae" unicode="&#xe6;" horiz-adv-x="818" 
d="M237 98c96 0 104 36 104 105h-114c-37 0 -54 -23 -54 -54c0 -34 23 -51 64 -51zM476 295h169c0 91 -25 107 -82 107c-68 0 -87 -28 -87 -107zM239 -12c-146 0 -202 55 -202 153c0 106 59 154 177 154h127v43c0 46 -19 64 -76 64c-58 0 -76 -20 -76 -65h-134
c0 115 59 175 209 175c70 0 118 -12 150 -36c35 26 84 36 150 36c142 0 215 -49 215 -232v-75h-303c0 -69 16 -107 88 -107c91 0 129 7 192 17v-109c-57 -10 -121 -18 -191 -18c-71 0 -122 12 -158 42c-37 -30 -91 -42 -168 -42z" />
    <glyph glyph-name="bdotaccent" unicode="&#x1e03;" horiz-adv-x="539" 
d="M177 43l-23 -43h-99v670h136v-201c49 31 90 43 130 43c107 0 178 -36 178 -208v-108c0 -173 -76 -208 -177 -208c-40 0 -88 12 -145 55zM363 187v126c0 72 -23 89 -69 89c-42 0 -78 -18 -103 -42v-220c25 -24 61 -42 103 -42c46 0 69 17 69 89zM267 565v106h106v-106
h-106z" />
    <glyph glyph-name="cacute" unicode="&#x107;" horiz-adv-x="517" 
d="M264 402c-69 0 -88 -29 -88 -111v-82c0 -87 22 -111 88 -111c53 0 79 15 79 82h134c0 -150 -80 -192 -213 -192c-151 0 -224 54 -224 231v62c0 180 74 231 224 231c136 0 213 -41 213 -192h-134c0 69 -27 82 -79 82zM224 565l28 120h127l-72 -120h-83z" />
    <glyph glyph-name="ccircumflex" unicode="&#x109;" horiz-adv-x="517" 
d="M264 402c-69 0 -88 -29 -88 -111v-82c0 -87 22 -111 88 -111c53 0 79 15 79 82h134c0 -150 -80 -192 -213 -192c-151 0 -224 54 -224 231v62c0 180 74 231 224 231c136 0 213 -41 213 -192h-134c0 69 -27 82 -79 82zM341 685l54 -120h-88l-40 54l-39 -54h-88l54 120h147z
" />
    <glyph glyph-name="ccaron" unicode="&#x10d;" horiz-adv-x="517" 
d="M264 402c-69 0 -88 -29 -88 -111v-82c0 -87 22 -111 88 -111c53 0 79 15 79 82h134c0 -150 -80 -192 -213 -192c-151 0 -224 54 -224 231v62c0 180 74 231 224 231c136 0 213 -41 213 -192h-134c0 69 -27 82 -79 82zM394 695l-54 -120h-147l-54 120h88l39 -54l40 54h88z
" />
    <glyph glyph-name="ccedilla" unicode="&#xe7;" horiz-adv-x="517" 
d="M264 402c-69 0 -88 -29 -88 -111v-82c0 -87 22 -111 88 -111c53 0 79 15 79 82h134c0 -142 -72 -187 -193 -191l-8 -30c43 -5 72 -24 72 -74c0 -58 -29 -86 -111 -86h-69v62h67c28 0 35 8 35 24c0 17 -7 24 -35 24h-33l24 80c-125 9 -186 68 -186 230v62
c0 180 74 231 224 231c136 0 213 -41 213 -192h-134c0 69 -27 82 -79 82z" />
    <glyph glyph-name="cdotaccent" unicode="&#x10b;" horiz-adv-x="517" 
d="M264 402c-69 0 -88 -29 -88 -111v-82c0 -87 22 -111 88 -111c53 0 79 15 79 82h134c0 -150 -80 -192 -213 -192c-151 0 -224 54 -224 231v62c0 180 74 231 224 231c136 0 213 -41 213 -192h-134c0 69 -27 82 -79 82zM213 565v106h106v-106h-106z" />
    <glyph glyph-name="dcaron" unicode="&#x10f;" horiz-adv-x="660" 
d="M385 0l-23 43c-57 -43 -105 -55 -145 -55c-101 0 -177 35 -177 208v108c0 172 71 208 178 208c40 0 81 -12 130 -43v201h136v-670h-99zM176 313v-126c0 -72 23 -89 69 -89c42 0 78 18 103 42v220c-25 24 -61 42 -103 42c-46 0 -69 -17 -69 -89zM545 440v230h110l-29 -230
h-81z" />
    <glyph glyph-name="ddotaccent" unicode="&#x1e0b;" horiz-adv-x="539" 
d="M385 0l-23 43c-57 -43 -105 -55 -145 -55c-101 0 -177 35 -177 208v108c0 172 71 208 178 208c40 0 81 -12 130 -43v201h136v-670h-99zM176 313v-126c0 -72 23 -89 69 -89c42 0 78 18 103 42v220c-25 24 -61 42 -103 42c-46 0 -69 -17 -69 -89zM173 565v106h106v-106
h-106z" />
    <glyph glyph-name="dcroat" unicode="&#x111;" horiz-adv-x="539" 
d="M534 620v-68h-50v-552h-99l-23 43c-57 -43 -105 -55 -145 -55c-101 0 -177 35 -177 208v108c0 172 71 208 178 208c40 0 81 -12 130 -43v83h-86v68h86v50h136v-50h50zM176 313v-126c0 -72 23 -89 69 -89c42 0 78 18 103 42v220c-25 24 -61 42 -103 42
c-46 0 -69 -17 -69 -89z" />
    <glyph glyph-name="eth" unicode="&#xf0;" horiz-adv-x="542" 
d="M223 541l-18 63l59 14c-16 20 -34 41 -55 63h159l25 -32l77 18l18 -63l-57 -14c43 -82 56 -172 56 -301v-70c0 -180 -76 -231 -223 -231c-150 0 -224 51 -224 231v50c0 175 62 231 206 231c38 0 69 -9 93 -25c-8 29 -19 57 -35 85zM176 279v-70c0 -88 24 -111 88 -111
s87 23 87 111v70c0 88 -23 111 -87 111s-88 -23 -88 -111z" />
    <glyph glyph-name="eacute" unicode="&#xe9;" horiz-adv-x="514" 
d="M176 295h169c0 88 -28 107 -82 107c-68 0 -87 -28 -87 -107zM264 98c91 0 129 7 192 17v-109c-57 -10 -121 -18 -191 -18c-148 0 -225 49 -225 232v61c0 180 74 231 224 231c142 0 215 -49 215 -232v-75h-303c0 -69 16 -107 88 -107zM227 565l28 120h127l-72 -120h-83z
" />
    <glyph glyph-name="egrave" unicode="&#xe8;" horiz-adv-x="514" 
d="M176 295h169c0 88 -28 107 -82 107c-68 0 -87 -28 -87 -107zM264 98c91 0 129 7 192 17v-109c-57 -10 -121 -18 -191 -18c-148 0 -225 49 -225 232v61c0 180 74 231 224 231c142 0 215 -49 215 -232v-75h-303c0 -69 16 -107 88 -107zM285 685l28 -120h-83l-72 120h127z
" />
    <glyph glyph-name="ecircumflex" unicode="&#xea;" horiz-adv-x="514" 
d="M176 295h169c0 88 -28 107 -82 107c-68 0 -87 -28 -87 -107zM264 98c91 0 129 7 192 17v-109c-57 -10 -121 -18 -191 -18c-148 0 -225 49 -225 232v61c0 180 74 231 224 231c142 0 215 -49 215 -232v-75h-303c0 -69 16 -107 88 -107zM342 685l54 -120h-88l-40 54l-39 -54
h-88l54 120h147z" />
    <glyph glyph-name="edieresis" unicode="&#xeb;" horiz-adv-x="514" 
d="M176 295h169c0 88 -28 107 -82 107c-68 0 -87 -28 -87 -107zM264 98c91 0 129 7 192 17v-109c-57 -10 -121 -18 -191 -18c-148 0 -225 49 -225 232v61c0 180 74 231 224 231c142 0 215 -49 215 -232v-75h-303c0 -69 16 -107 88 -107zM131 565v106h106v-106h-106zM297 565
v106h106v-106h-106z" />
    <glyph glyph-name="ecaron" unicode="&#x11b;" horiz-adv-x="514" 
d="M176 295h169c0 88 -28 107 -82 107c-68 0 -87 -28 -87 -107zM264 98c91 0 129 7 192 17v-109c-57 -10 -121 -18 -191 -18c-148 0 -225 49 -225 232v61c0 180 74 231 224 231c142 0 215 -49 215 -232v-75h-303c0 -69 16 -107 88 -107zM395 695l-54 -120h-147l-54 120h88
l39 -54l40 54h88z" />
    <glyph glyph-name="emacron" unicode="&#x113;" horiz-adv-x="514" 
d="M176 295h169c0 88 -28 107 -82 107c-68 0 -87 -28 -87 -107zM264 98c91 0 129 7 192 17v-109c-57 -10 -121 -18 -191 -18c-148 0 -225 49 -225 232v61c0 180 74 231 224 231c142 0 215 -49 215 -232v-75h-303c0 -69 16 -107 88 -107zM147 578v86h240v-86h-240z" />
    <glyph glyph-name="ebreve" unicode="&#x115;" horiz-adv-x="514" 
d="M176 295h169c0 88 -28 107 -82 107c-68 0 -87 -28 -87 -107zM264 98c91 0 129 7 192 17v-109c-57 -10 -121 -18 -191 -18c-148 0 -225 49 -225 232v61c0 180 74 231 224 231c142 0 215 -49 215 -232v-75h-303c0 -69 16 -107 88 -107zM265 555c-85 0 -126 49 -126 134h78
c0 -35 17 -53 48 -53s48 18 48 53h78c0 -85 -41 -134 -126 -134z" />
    <glyph glyph-name="eogonek" unicode="&#x119;" horiz-adv-x="514" 
d="M264 98c91 0 129 7 192 17v-109c-26 -22 -42 -42 -42 -70c0 -19 13 -26 33 -26h9v-78h-57c-51 0 -84 22 -84 71c0 31 15 64 43 90c-30 -3 -61 -5 -93 -5c-148 0 -225 49 -225 232v61c0 180 74 231 224 231c142 0 215 -49 215 -232v-75h-303c0 -69 16 -107 88 -107z
M176 295h169c0 88 -28 107 -82 107c-68 0 -87 -28 -87 -107z" />
    <glyph glyph-name="edotaccent" unicode="&#x117;" horiz-adv-x="514" 
d="M176 295h169c0 88 -28 107 -82 107c-68 0 -87 -28 -87 -107zM264 98c91 0 129 7 192 17v-109c-57 -10 -121 -18 -191 -18c-148 0 -225 49 -225 232v61c0 180 74 231 224 231c142 0 215 -49 215 -232v-75h-303c0 -69 16 -107 88 -107zM212 565v106h106v-106h-106z" />
    <glyph glyph-name="fdotaccent" unicode="&#x1e1f;" horiz-adv-x="333" 
d="M313 575c-13 2 -35 5 -54 5c-28 0 -39 -10 -39 -42v-38h74v-110h-74v-390h-136v390h-64v97l64 13v51c0 107 46 139 136 139c36 0 70 -5 93 -11v-104zM161 742v106h106v-106h-106z" />
    <glyph glyph-name="gcircumflex" unicode="&#x11d;" horiz-adv-x="539" 
d="M484 500v-503c0 -131 -68 -179 -220 -179c-41 0 -111 6 -161 19v112c53 -14 107 -21 159 -21c60 0 86 18 86 69v46c-49 -31 -90 -43 -130 -43c-107 0 -178 36 -178 208v96c0 173 76 208 177 208c40 0 88 -12 145 -55l23 43h99zM348 142v228c-25 19 -64 32 -101 32
c-52 0 -71 -24 -71 -99v-94c0 -75 19 -99 71 -99c37 0 75 13 101 32zM349 685l54 -120h-88l-40 54l-39 -54h-88l54 120h147z" />
    <glyph glyph-name="gbreve" unicode="&#x11f;" horiz-adv-x="539" 
d="M484 500v-503c0 -131 -68 -179 -220 -179c-41 0 -111 6 -161 19v112c53 -14 107 -21 159 -21c60 0 86 18 86 69v46c-49 -31 -90 -43 -130 -43c-107 0 -178 36 -178 208v96c0 173 76 208 177 208c40 0 88 -12 145 -55l23 43h99zM348 142v228c-25 19 -64 32 -101 32
c-52 0 -71 -24 -71 -99v-94c0 -75 19 -99 71 -99c37 0 75 13 101 32zM279 555c-85 0 -126 49 -126 134h78c0 -35 17 -53 48 -53s48 18 48 53h78c0 -85 -41 -134 -126 -134z" />
    <glyph glyph-name="gdotaccent" unicode="&#x121;" horiz-adv-x="539" 
d="M484 500v-503c0 -131 -68 -179 -220 -179c-41 0 -111 6 -161 19v112c53 -14 107 -21 159 -21c60 0 86 18 86 69v46c-49 -31 -90 -43 -130 -43c-107 0 -178 36 -178 208v96c0 173 76 208 177 208c40 0 88 -12 145 -55l23 43h99zM348 142v228c-25 19 -64 32 -101 32
c-52 0 -71 -24 -71 -99v-94c0 -75 19 -99 71 -99c37 0 75 13 101 32zM220 565v106h106v-106h-106z" />
    <glyph glyph-name="gcommaaccent" unicode="&#x123;" horiz-adv-x="539" 
d="M484 500v-503c0 -131 -68 -179 -220 -179c-41 0 -111 6 -161 19v112c53 -14 107 -21 159 -21c60 0 86 18 86 69v46c-49 -31 -90 -43 -130 -43c-107 0 -178 36 -178 208v96c0 173 76 208 177 208c40 0 88 -12 145 -55l23 43h99zM348 142v228c-25 19 -64 32 -101 32
c-52 0 -71 -24 -71 -99v-94c0 -75 19 -99 71 -99c37 0 75 13 101 32zM373 690l-36 -130h-132l73 130h95z" />
    <glyph glyph-name="hcircumflex" unicode="&#x125;" horiz-adv-x="535" 
d="M55 670h136v-203c50 34 92 45 145 45c106 0 149 -44 149 -177v-335h-136v331c0 55 -15 71 -63 71c-30 0 -68 -16 -95 -42v-360h-136v670zM197 840l54 -120h-88l-40 54l-39 -54h-88l54 120h147z" />
    <glyph glyph-name="hbar" unicode="&#x127;" horiz-adv-x="535" 
d="M55 670h136v-39h257v-70h-257v-94c50 34 92 45 145 45c106 0 149 -44 149 -177v-335h-136v331c0 55 -15 71 -63 71c-30 0 -68 -16 -95 -42v-360h-136v670z" />
    <glyph glyph-name="dotlessi" unicode="&#x131;" horiz-adv-x="246" 
d="M55 0v500h136v-500h-136z" />
    <glyph glyph-name="iacute" unicode="&#xed;" horiz-adv-x="246" 
d="M55 0v500h136v-500h-136zM83 565l28 120h127l-72 -120h-83z" />
    <glyph glyph-name="igrave" unicode="&#xec;" horiz-adv-x="246" 
d="M55 0v500h136v-500h-136zM133 685l28 -120h-83l-72 120h127z" />
    <glyph glyph-name="icircumflex" unicode="&#xee;" horiz-adv-x="246" 
d="M55 0v500h136v-500h-136zM198 685l54 -120h-88l-40 54l-39 -54h-88l54 120h147z" />
    <glyph glyph-name="idieresis" unicode="&#xef;" horiz-adv-x="246" 
d="M55 0v500h136v-500h-136zM-12 565v106h106v-106h-106zM154 565v106h106v-106h-106z" />
    <glyph glyph-name="itilde" unicode="&#x129;" horiz-adv-x="246" 
d="M173 636c13 0 22 10 22 34h76c0 -92 -30 -120 -88 -120c-63 0 -70 46 -109 46c-13 0 -22 -10 -22 -34h-76c0 92 31 120 88 120c63 0 70 -46 109 -46zM55 0v500h136v-500h-136z" />
    <glyph glyph-name="imacron" unicode="&#x12b;" horiz-adv-x="246" 
d="M-2 564v86h250v-86h-250zM55 0v500h136v-500h-136z" />
    <glyph glyph-name="ibreve" unicode="&#x12d;" horiz-adv-x="246" 
d="M55 0v500h136v-500h-136zM124 555c-85 0 -126 49 -126 134h78c0 -35 17 -53 48 -53s48 18 48 53h78c0 -85 -41 -134 -126 -134z" />
    <glyph glyph-name="iogonek" unicode="&#x12f;" horiz-adv-x="246" 
d="M55 0v500h136v-500c-26 -22 -42 -42 -42 -70c0 -19 13 -26 33 -26h9v-78h-57c-51 0 -84 22 -84 71c0 37 21 76 60 103h-55zM55 544v126h136v-126h-136z" />
    <glyph glyph-name="jcircumflex" unicode="&#x135;" horiz-adv-x="244" 
d="M189 500v-540c0 -107 -46 -142 -136 -142c-36 0 -70 5 -93 11v107c13 -2 35 -5 54 -5c28 0 39 10 39 42v527h136zM194 670l54 -120h-88l-40 54l-39 -54h-88l54 120h147z" />
    <glyph glyph-name="kcommaaccent" unicode="&#x137;" horiz-adv-x="495" 
d="M191 224v-224h-136v670h136v-363h2l128 193h156l-168 -232l176 -268h-161l-131 224h-2zM165 -190l36 130h132l-73 -130h-95z" />
    <glyph glyph-name="kgreenlandic" unicode="&#x138;" horiz-adv-x="495" 
d="M191 224v-224h-136v500h136v-193h2l128 193h156l-168 -232l176 -268h-161l-131 224h-2z" />
    <glyph glyph-name="lacute" unicode="&#x13a;" horiz-adv-x="246" 
d="M55 0v670h136v-670h-136zM80 715l28 120h127l-72 -120h-83z" />
    <glyph glyph-name="lcaron" unicode="&#x13e;" horiz-adv-x="366" 
d="M55 0v670h136v-670h-136zM251 440v230h110l-29 -230h-81z" />
    <glyph glyph-name="lcommaaccent" unicode="&#x13c;" horiz-adv-x="246" 
d="M55 0v670h136v-670h-136zM19 -190l36 130h132l-73 -130h-95z" />
    <glyph glyph-name="ldot" unicode="&#x140;" horiz-adv-x="393" 
d="M55 0v670h136v-670h-136zM246 255v143h142v-143h-142z" />
    <glyph glyph-name="lslash" unicode="&#x142;" horiz-adv-x="288" 
d="M76 0v239l-66 -24v96l66 24v335h136v-285l66 24v-96l-66 -24v-289h-136z" />
    <glyph glyph-name="mdotaccent" unicode="&#x1e41;" horiz-adv-x="773" 
d="M587 0v330c0 59 -14 72 -56 72c-19 0 -53 -11 -74 -26v-376h-136v330c0 59 -14 72 -56 72c-19 0 -53 -11 -74 -26v-376h-136v500h96l22 -37c44 30 84 49 138 49c61 0 92 -12 123 -48c40 25 88 48 145 48c113 0 144 -45 144 -183v-329h-136zM335 565v106h106v-106h-106z
" />
    <glyph glyph-name="nacute" unicode="&#x144;" horiz-adv-x="537" 
d="M55 500h99l23 -43c57 43 101 55 159 55c106 0 151 -44 151 -177v-335h-136v331c0 55 -15 71 -63 71c-30 0 -70 -16 -97 -42v-360h-136v500zM238 565l28 120h127l-72 -120h-83z" />
    <glyph glyph-name="ntilde" unicode="&#xf1;" horiz-adv-x="537" 
d="M55 500h99l23 -43c57 43 101 55 159 55c106 0 151 -44 151 -177v-335h-136v331c0 55 -15 71 -63 71c-30 0 -70 -16 -97 -42v-360h-136v500zM324 650c19 0 31 10 31 32h78c0 -88 -30 -123 -94 -123c-58 0 -74 43 -119 43c-19 0 -31 -9 -31 -32h-78c0 90 30 123 94 123
c58 0 76 -43 119 -43z" />
    <glyph glyph-name="ncaron" unicode="&#x148;" horiz-adv-x="537" 
d="M55 500h99l23 -43c57 43 101 55 159 55c106 0 151 -44 151 -177v-335h-136v331c0 55 -15 71 -63 71c-30 0 -70 -16 -97 -42v-360h-136v500zM401 695l-54 -120h-147l-54 120h88l39 -54l40 54h88z" />
    <glyph glyph-name="ncommaaccent" unicode="&#x146;" horiz-adv-x="537" 
d="M55 500h99l23 -43c57 43 101 55 159 55c106 0 151 -44 151 -177v-335h-136v331c0 55 -15 71 -63 71c-30 0 -70 -16 -97 -42v-360h-136v500zM168 -190l36 130h132l-73 -130h-95z" />
    <glyph glyph-name="eng" unicode="&#x14b;" horiz-adv-x="537" 
d="M55 500h99l23 -43c57 43 101 55 159 55c106 0 151 -44 151 -177v-375c0 -107 -46 -142 -136 -142c-36 0 -70 5 -93 11v107c13 -2 35 -5 54 -5c28 0 39 10 39 42v358c0 55 -15 71 -63 71c-30 0 -70 -16 -97 -42v-360h-136v500z" />
    <glyph glyph-name="oacute" unicode="&#xf3;" horiz-adv-x="527" 
d="M176 291v-82c0 -88 24 -111 88 -111s87 23 87 111v82c0 88 -23 111 -87 111s-88 -23 -88 -111zM487 281v-62c0 -180 -76 -231 -223 -231c-150 0 -224 51 -224 231v62c0 179 76 231 224 231c146 0 223 -52 223 -231zM223 565l28 120h127l-72 -120h-83z" />
    <glyph glyph-name="ograve" unicode="&#xf2;" horiz-adv-x="527" 
d="M176 291v-82c0 -88 24 -111 88 -111s87 23 87 111v82c0 88 -23 111 -87 111s-88 -23 -88 -111zM487 281v-62c0 -180 -76 -231 -223 -231c-150 0 -224 51 -224 231v62c0 179 76 231 224 231c146 0 223 -52 223 -231zM287 685l28 -120h-83l-72 120h127z" />
    <glyph glyph-name="ocircumflex" unicode="&#xf4;" horiz-adv-x="527" 
d="M176 291v-82c0 -88 24 -111 88 -111s87 23 87 111v82c0 88 -23 111 -87 111s-88 -23 -88 -111zM487 281v-62c0 -180 -76 -231 -223 -231c-150 0 -224 51 -224 231v62c0 179 76 231 224 231c146 0 223 -52 223 -231zM338 685l54 -120h-88l-40 54l-39 -54h-88l54 120h147z
" />
    <glyph glyph-name="odieresis" unicode="&#xf6;" horiz-adv-x="527" 
d="M176 291v-82c0 -88 24 -111 88 -111s87 23 87 111v82c0 88 -23 111 -87 111s-88 -23 -88 -111zM487 281v-62c0 -180 -76 -231 -223 -231c-150 0 -224 51 -224 231v62c0 179 76 231 224 231c146 0 223 -52 223 -231zM127 565v106h106v-106h-106zM293 565v106h106v-106
h-106z" />
    <glyph glyph-name="otilde" unicode="&#xf5;" horiz-adv-x="527" 
d="M176 291v-82c0 -88 24 -111 88 -111s87 23 87 111v82c0 88 -23 111 -87 111s-88 -23 -88 -111zM487 281v-62c0 -180 -76 -231 -223 -231c-150 0 -224 51 -224 231v62c0 179 76 231 224 231c146 0 223 -52 223 -231zM315 650c19 0 31 10 31 32h78c0 -88 -30 -123 -94 -123
c-58 0 -74 43 -119 43c-19 0 -31 -9 -31 -32h-78c0 90 30 123 94 123c58 0 76 -43 119 -43z" />
    <glyph glyph-name="obreve" unicode="&#x14f;" horiz-adv-x="527" 
d="M176 291v-82c0 -88 24 -111 88 -111s87 23 87 111v82c0 88 -23 111 -87 111s-88 -23 -88 -111zM487 281v-62c0 -180 -76 -231 -223 -231c-150 0 -224 51 -224 231v62c0 179 76 231 224 231c146 0 223 -52 223 -231zM265 555c-85 0 -126 49 -126 134h78
c0 -35 17 -53 48 -53s48 18 48 53h78c0 -85 -41 -134 -126 -134z" />
    <glyph glyph-name="omacron" unicode="&#x14d;" horiz-adv-x="527" 
d="M176 291v-82c0 -88 24 -111 88 -111s87 23 87 111v82c0 88 -23 111 -87 111s-88 -23 -88 -111zM487 281v-62c0 -180 -76 -231 -223 -231c-150 0 -224 51 -224 231v62c0 179 76 231 224 231c146 0 223 -52 223 -231zM145 578v86h240v-86h-240z" />
    <glyph glyph-name="ohungarumlaut" unicode="&#x151;" horiz-adv-x="527" 
d="M176 291v-82c0 -88 24 -111 88 -111s87 23 87 111v82c0 88 -23 111 -87 111s-88 -23 -88 -111zM487 281v-62c0 -180 -76 -231 -223 -231c-150 0 -224 51 -224 231v62c0 179 76 231 224 231c146 0 223 -52 223 -231zM161 565l14 120h113l-48 -120h-79zM296 565l38 120h117
l-72 -120h-83z" />
    <glyph glyph-name="oslash" unicode="&#xf8;" horiz-adv-x="527" 
d="M491 281v-62c0 -180 -77 -231 -225 -231c-51 0 -93 6 -126 20l-19 -28h-76l43 64c-32 36 -48 91 -48 175v62c0 179 77 231 226 231c49 0 91 -6 124 -21l20 29h76l-44 -65c32 -36 49 -92 49 -174zM353 291c0 11 0 21 -1 31l-143 -212c13 -9 32 -12 57 -12
c64 0 87 23 87 111v82zM178 291v-82c0 -11 0 -22 1 -31l143 212c-14 9 -32 12 -56 12c-64 0 -88 -23 -88 -111z" />
    <glyph glyph-name="oe" unicode="&#x153;" horiz-adv-x="825" 
d="M176 291v-82c0 -88 24 -111 88 -111s87 23 87 111v82c0 88 -23 111 -87 111s-88 -23 -88 -111zM487 295h169c0 88 -28 107 -82 107c-68 0 -87 -28 -87 -107zM575 98c91 0 129 7 192 17v-109c-57 -10 -121 -18 -191 -18s-121 12 -157 42c-35 -30 -86 -42 -155 -42
c-151 0 -224 51 -224 231v62c0 179 75 231 224 231c69 0 119 -12 154 -42c36 30 86 42 157 42c142 0 215 -49 215 -232v-75h-303c0 -69 16 -107 88 -107z" />
    <glyph glyph-name="thorn" unicode="&#xfe;" horiz-adv-x="539" 
d="M191 360v-220c25 -24 61 -42 103 -42c46 0 69 17 69 89v126c0 72 -23 89 -69 89c-42 0 -78 -18 -103 -42zM55 -170v840h136v-201c49 31 90 43 130 43c107 0 178 -36 178 -208v-108c0 -172 -71 -208 -178 -208c-40 0 -81 12 -130 43v-201h-136z" />
    <glyph glyph-name="pdotaccent" unicode="&#x1e57;" horiz-adv-x="539" 
d="M154 500l23 -43c57 43 105 55 145 55c101 0 177 -35 177 -208v-108c0 -172 -71 -208 -178 -208c-40 0 -81 12 -130 43v-201h-136v670h99zM363 187v126c0 72 -23 89 -69 89c-42 0 -78 -18 -103 -42v-220c25 -24 61 -42 103 -42c46 0 69 17 69 89zM226 565v106h106v-106
h-106z" />
    <glyph glyph-name="racute" unicode="&#x155;" horiz-adv-x="339" 
d="M314 512v-120c-46 0 -93 -14 -123 -38v-354h-136v500h96l22 -37c42 33 91 49 141 49zM137 565l28 120h127l-72 -120h-83z" />
    <glyph glyph-name="rcaron" unicode="&#x159;" horiz-adv-x="339" 
d="M314 512v-120c-46 0 -93 -14 -123 -38v-354h-136v500h96l22 -37c42 33 91 49 141 49zM315 695l-54 -120h-147l-54 120h88l39 -54l40 54h88z" />
    <glyph glyph-name="rcommaaccent" unicode="&#x157;" horiz-adv-x="339" 
d="M314 512v-120c-46 0 -93 -14 -123 -38v-354h-136v500h96l22 -37c42 33 91 49 141 49zM20 -190l36 130h132l-73 -130h-95z" />
    <glyph glyph-name="sacute" unicode="&#x15b;" horiz-adv-x="501" 
d="M466 145c0 -77 -10 -157 -214 -157c-168 0 -217 55 -217 169h136c0 -47 23 -59 81 -59c56 0 78 15 78 47c0 44 -14 56 -102 63c-152 12 -188 57 -188 148c0 105 74 156 207 156c154 0 210 -44 210 -171h-136c0 26 -1 61 -74 61c-59 0 -71 -22 -71 -50
c0 -36 14 -50 81 -56c179 -15 209 -48 209 -151zM211 565l28 120h127l-72 -120h-83z" />
    <glyph glyph-name="scircumflex" unicode="&#x15d;" horiz-adv-x="501" 
d="M466 145c0 -77 -10 -157 -214 -157c-168 0 -217 55 -217 169h136c0 -47 23 -59 81 -59c56 0 78 15 78 47c0 44 -14 56 -102 63c-152 12 -188 57 -188 148c0 105 74 156 207 156c154 0 210 -44 210 -171h-136c0 26 -1 61 -74 61c-59 0 -71 -22 -71 -50
c0 -36 14 -50 81 -56c179 -15 209 -48 209 -151zM327 685l54 -120h-88l-40 54l-39 -54h-88l54 120h147z" />
    <glyph glyph-name="scaron" unicode="&#x161;" horiz-adv-x="501" 
d="M466 145c0 -77 -10 -157 -214 -157c-168 0 -217 55 -217 169h136c0 -47 23 -59 81 -59c56 0 78 15 78 47c0 44 -14 56 -102 63c-152 12 -188 57 -188 148c0 105 74 156 207 156c154 0 210 -44 210 -171h-136c0 26 -1 61 -74 61c-59 0 -71 -22 -71 -50
c0 -36 14 -50 81 -56c179 -15 209 -48 209 -151zM380 695l-54 -120h-147l-54 120h88l39 -54l40 54h88z" />
    <glyph glyph-name="sdotaccent" unicode="&#x1e61;" horiz-adv-x="501" 
d="M466 145c0 -77 -10 -157 -214 -157c-168 0 -217 55 -217 169h136c0 -47 23 -59 81 -59c56 0 78 15 78 47c0 44 -14 56 -102 63c-152 12 -188 57 -188 148c0 105 74 156 207 156c154 0 210 -44 210 -171h-136c0 26 -1 61 -74 61c-59 0 -71 -22 -71 -50
c0 -36 14 -50 81 -56c179 -15 209 -48 209 -151zM200 565v106h106v-106h-106z" />
    <glyph glyph-name="scedilla" unicode="&#x15f;" horiz-adv-x="501" 
d="M466 145c0 -74 -10 -150 -190 -156l-8 -30c43 -5 72 -24 72 -74c0 -58 -29 -86 -111 -86h-69v62h67c28 0 35 8 35 24c0 17 -7 24 -35 24h-33l24 80c-141 7 -183 62 -183 168h136c0 -47 23 -59 81 -59c56 0 78 15 78 47c0 44 -14 56 -102 63c-152 12 -188 57 -188 148
c0 105 74 156 207 156c154 0 210 -44 210 -171h-136c0 26 -1 61 -74 61c-59 0 -71 -22 -71 -50c0 -36 14 -50 81 -56c179 -15 209 -48 209 -151z" />
    <glyph glyph-name="scommaaccent" unicode="&#x219;" horiz-adv-x="501" 
d="M466 145c0 -77 -10 -157 -214 -157c-168 0 -217 55 -217 169h136c0 -47 23 -59 81 -59c56 0 78 15 78 47c0 44 -14 56 -102 63c-152 12 -188 57 -188 148c0 105 74 156 207 156c154 0 210 -44 210 -171h-136c0 26 -1 61 -74 61c-59 0 -71 -22 -71 -50
c0 -36 14 -50 81 -56c179 -15 209 -48 209 -151zM148 -190l36 130h132l-73 -130h-95z" />
    <glyph glyph-name="germandbls" unicode="&#xdf;" horiz-adv-x="551" 
d="M306 98c49 0 76 26 76 94c0 85 -26 113 -113 113h-19v114h6c47 0 70 16 70 79c0 47 -18 70 -68 70c-51 0 -65 -27 -65 -71v-497h-136v488c0 136 69 192 199 192c144 0 203 -58 203 -169c0 -78 -44 -124 -96 -140c102 -18 155 -72 155 -184c0 -128 -48 -199 -194 -199
c-31 0 -65 5 -92 12v109c25 -7 44 -11 74 -11z" />
    <glyph glyph-name="tcaron" unicode="&#x165;" horiz-adv-x="343" 
d="M259 540v180h105l-29 -180h-76zM313 103v-103c-23 -6 -57 -12 -93 -12c-90 0 -136 32 -136 139v263h-64v97l64 13v113l136 27v-140h93v-110h-93v-250c0 -32 11 -42 39 -42c19 0 41 3 54 5z" />
    <glyph glyph-name="tdotaccent" unicode="&#x1e6b;" horiz-adv-x="343" 
d="M313 103v-103c-23 -6 -57 -12 -93 -12c-90 0 -136 32 -136 139v263h-64v97l64 13v113l136 27v-140h93v-110h-93v-250c0 -32 11 -42 39 -42c19 0 41 3 54 5zM100 693v106h106v-106h-106z" />
    <glyph glyph-name="tcommaaccent" unicode="&#x21b;" horiz-adv-x="343" 
d="M313 103v-103c-23 -6 -57 -12 -93 -12c-90 0 -136 32 -136 139v263h-64v97l64 13v113l136 27v-140h93v-110h-93v-250c0 -32 11 -42 39 -42c19 0 41 3 54 5zM91 -190l36 130h132l-73 -130h-95z" />
    <glyph glyph-name="tbar" unicode="&#x167;" horiz-adv-x="343" 
d="M315 103v-103c-23 -6 -57 -12 -93 -12c-90 0 -138 32 -138 139v83h-53v90h53v90h-64v97l64 13v113l138 27v-140h93v-110h-93v-90h75v-90h-75v-70c0 -32 11 -42 39 -42c19 0 41 3 54 5z" />
    <glyph glyph-name="uacute" unicode="&#xfa;" 
d="M485 0h-99l-23 43c-57 -43 -101 -55 -159 -55c-106 0 -149 44 -149 177v335h136v-331c0 -55 15 -71 63 -71c30 0 68 16 95 42v360h136v-500zM228 565l28 120h127l-72 -120h-83z" />
    <glyph glyph-name="ugrave" unicode="&#xf9;" 
d="M485 0h-99l-23 43c-57 -43 -101 -55 -159 -55c-106 0 -149 44 -149 177v335h136v-331c0 -55 15 -71 63 -71c30 0 68 16 95 42v360h136v-500zM288 685l28 -120h-83l-72 120h127z" />
    <glyph glyph-name="ucircumflex" unicode="&#xfb;" 
d="M485 0h-99l-23 43c-57 -43 -101 -55 -159 -55c-106 0 -149 44 -149 177v335h136v-331c0 -55 15 -71 63 -71c30 0 68 16 95 42v360h136v-500zM343 685l54 -120h-88l-40 54l-39 -54h-88l54 120h147z" />
    <glyph glyph-name="udieresis" unicode="&#xfc;" 
d="M485 0h-99l-23 43c-57 -43 -101 -55 -159 -55c-106 0 -149 44 -149 177v335h136v-331c0 -55 15 -71 63 -71c30 0 68 16 95 42v360h136v-500zM134 565v106h106v-106h-106zM300 565v106h106v-106h-106z" />
    <glyph glyph-name="utilde" unicode="&#x169;" 
d="M485 0h-99l-23 43c-57 -43 -101 -55 -159 -55c-106 0 -149 44 -149 177v335h136v-331c0 -55 15 -71 63 -71c30 0 68 16 95 42v360h136v-500zM322 650c19 0 31 10 31 32h78c0 -88 -30 -123 -94 -123c-58 0 -74 43 -119 43c-19 0 -31 -9 -31 -32h-78c0 90 30 123 94 123
c58 0 76 -43 119 -43z" />
    <glyph glyph-name="uring" unicode="&#x16f;" 
d="M485 0h-99l-23 43c-57 -43 -101 -55 -159 -55c-106 0 -149 44 -149 177v335h136v-331c0 -55 15 -71 63 -71c30 0 68 16 95 42v360h136v-500zM270 743c70 0 111 -31 111 -93s-41 -95 -111 -95s-111 33 -111 95s41 93 111 93zM270 613c27 0 39 13 39 37c0 22 -12 35 -39 35
s-39 -13 -39 -35c0 -24 12 -37 39 -37z" />
    <glyph glyph-name="ubreve" unicode="&#x16d;" 
d="M485 0h-99l-23 43c-57 -43 -101 -55 -159 -55c-106 0 -149 44 -149 177v335h136v-331c0 -55 15 -71 63 -71c30 0 68 16 95 42v360h136v-500zM270 555c-85 0 -126 49 -126 134h78c0 -35 17 -53 48 -53s48 18 48 53h78c0 -85 -41 -134 -126 -134z" />
    <glyph glyph-name="umacron" unicode="&#x16b;" 
d="M485 0h-99l-23 43c-57 -43 -101 -55 -159 -55c-106 0 -149 44 -149 177v335h136v-331c0 -55 15 -71 63 -71c30 0 68 16 95 42v360h136v-500zM149 578v86h240v-86h-240z" />
    <glyph glyph-name="uhungarumlaut" unicode="&#x171;" 
d="M485 0h-99l-23 43c-57 -43 -101 -55 -159 -55c-106 0 -149 44 -149 177v335h136v-331c0 -55 15 -71 63 -71c30 0 68 16 95 42v360h136v-500zM164 565l14 120h113l-48 -120h-79zM299 565l38 120h117l-72 -120h-83z" />
    <glyph glyph-name="uogonek" unicode="&#x173;" 
d="M348 -103c0 33 16 67 46 93l-29 53c-57 -43 -101 -55 -159 -55c-106 0 -151 44 -151 177v335h138v-331c0 -55 15 -71 63 -71c30 0 68 16 95 42v360h138v-500c-26 -22 -42 -42 -42 -70c0 -19 13 -26 33 -26h9v-78h-57c-51 0 -84 22 -84 71z" />
    <glyph glyph-name="wacute" unicode="&#x1e83;" horiz-adv-x="744" 
d="M522 131l61 369h141l-120 -500h-164l-68 370l-67 -370h-164l-121 500h141l63 -367l74 367h149l73 -369h2zM334 565l28 120h127l-72 -120h-83z" />
    <glyph glyph-name="wgrave" unicode="&#x1e81;" horiz-adv-x="744" 
d="M522 131l61 369h141l-120 -500h-164l-68 370l-67 -370h-164l-121 500h141l63 -367l74 367h149l73 -369h2zM392 685l28 -120h-83l-72 120h127z" />
    <glyph glyph-name="wcircumflex" unicode="&#x175;" horiz-adv-x="744" 
d="M522 131l61 369h141l-120 -500h-164l-68 370l-67 -370h-164l-121 500h141l63 -367l74 367h149l73 -369h2zM445 685l54 -120h-88l-40 54l-39 -54h-88l54 120h147z" />
    <glyph glyph-name="wdieresis" unicode="&#x1e85;" horiz-adv-x="744" 
d="M522 131l61 369h141l-120 -500h-164l-68 370l-67 -370h-164l-121 500h141l63 -367l74 367h149l73 -369h2zM236 565v106h106v-106h-106zM402 565v106h106v-106h-106z" />
    <glyph glyph-name="yacute" unicode="&#xfd;" horiz-adv-x="496" 
d="M186 2l-176 498h146l94 -333h2l87 333h147l-187 -558c-30 -90 -74 -124 -192 -124c-17 0 -53 4 -71 10v109c20 -6 45 -9 66 -9c46 0 62 15 78 57zM208 565l28 120h127l-72 -120h-83z" />
    <glyph glyph-name="ygrave" unicode="&#x1ef3;" horiz-adv-x="496" 
d="M186 2l-176 498h146l94 -333h2l87 333h147l-187 -558c-30 -90 -74 -124 -192 -124c-17 0 -53 4 -71 10v109c20 -6 45 -9 66 -9c46 0 62 15 78 57zM267 685l28 -120h-83l-72 120h127z" />
    <glyph glyph-name="ycircumflex" unicode="&#x177;" horiz-adv-x="496" 
d="M186 2l-176 498h146l94 -333h2l87 333h147l-187 -558c-30 -90 -74 -124 -192 -124c-17 0 -53 4 -71 10v109c20 -6 45 -9 66 -9c46 0 62 15 78 57zM321 685l54 -120h-88l-40 54l-39 -54h-88l54 120h147z" />
    <glyph glyph-name="ydieresis" unicode="&#xff;" horiz-adv-x="496" 
d="M186 2l-176 498h146l94 -333h2l87 333h147l-187 -558c-30 -90 -74 -124 -192 -124c-17 0 -53 4 -71 10v109c20 -6 45 -9 66 -9c46 0 62 15 78 57zM112 565v106h106v-106h-106zM278 565v106h106v-106h-106z" />
    <glyph glyph-name="zacute" unicode="&#x17a;" horiz-adv-x="470" 
d="M45 390v110h386v-96l-231 -294h240v-110h-405v96l231 294h-221zM192 565l28 120h127l-72 -120h-83z" />
    <glyph glyph-name="zcaron" unicode="&#x17e;" horiz-adv-x="470" 
d="M45 390v110h386v-96l-231 -294h240v-110h-405v96l231 294h-221zM366 695l-54 -120h-147l-54 120h88l39 -54l40 54h88z" />
    <glyph glyph-name="zdotaccent" unicode="&#x17c;" horiz-adv-x="470" 
d="M45 390v110h386v-96l-231 -294h240v-110h-405v96l231 294h-221zM182 565v106h106v-106h-106z" />
    <glyph glyph-name="onehalf" unicode="&#xbd;" horiz-adv-x="627" 
d="M187 349h-72v241h-58v40l84 20h46v-301zM431 204h-71c0 74 40 102 108 102c83 0 107 -39 107 -97c0 -103 -139 -85 -141 -150h143v-59h-218v44c0 125 144 102 144 163c0 25 -8 40 -35 40c-25 0 -37 -12 -37 -43zM50 0l421 650h80l-421 -650h-80z" />
    <glyph glyph-name="onethird" unicode="&#x2153;" horiz-adv-x="632" 
d="M187 349h-72v241h-58v40l84 20h46v-301zM50 0l421 650h80l-421 -650h-80zM470 54c30 0 41 15 41 38c0 32 -24 35 -39 35h-34v51h31c22 0 36 6 36 35c0 19 -8 34 -37 34c-27 0 -39 -12 -39 -43h-69c0 68 32 102 108 102c84 0 108 -38 108 -90c0 -28 -12 -49 -39 -61
c32 -12 45 -33 45 -68c0 -54 -19 -92 -112 -92c-80 0 -113 32 -113 101h71c0 -29 14 -42 42 -42z" />
    <glyph glyph-name="twothirds" unicode="&#x2154;" horiz-adv-x="670" 
d="M88 0l421 650h80l-421 -650h-80zM508 54c30 0 41 15 41 38c0 32 -24 35 -39 35h-34v51h31c22 0 36 6 36 35c0 19 -8 34 -37 34c-27 0 -39 -12 -39 -43h-69c0 68 32 102 108 102c84 0 108 -38 108 -90c0 -28 -12 -49 -39 -61c32 -12 45 -33 45 -68c0 -54 -19 -92 -112 -92
c-80 0 -113 32 -113 101h71c0 -29 14 -42 42 -42zM122 553h-71c0 74 40 102 108 102c83 0 107 -39 107 -97c0 -103 -139 -85 -141 -150h143v-59h-218v44c0 125 144 102 144 163c0 25 -8 40 -35 40c-25 0 -37 -12 -37 -43z" />
    <glyph glyph-name="onequarter" unicode="&#xbc;" horiz-adv-x="605" 
d="M187 349h-72v241h-58v40l84 20h46v-301zM50 0l421 650h80l-421 -650h-80zM451 0v58h-132v55l119 188h85v-183h32v-60h-32v-58h-72zM386 118h65v107z" />
    <glyph glyph-name="threequarters" unicode="&#xbe;" horiz-adv-x="625" 
d="M70 0l421 650h80l-421 -650h-80zM471 0v58h-132v55l119 188h85v-183h32v-60h-32v-58h-72zM406 118h65v107zM163 402c30 0 40 13 40 36c0 32 -25 34 -40 34h-32v57h29c22 0 37 5 37 34c0 19 -7 32 -36 32c-27 0 -38 -12 -38 -43h-70c0 68 32 102 108 102
c84 0 108 -38 108 -90c0 -28 -12 -49 -39 -61c32 -12 45 -33 45 -68c0 -54 -19 -92 -112 -92c-80 0 -113 32 -113 101h72c0 -29 13 -42 41 -42z" />
    <glyph glyph-name="oneeighth" unicode="&#x215b;" horiz-adv-x="632" 
d="M187 349h-72v241h-58v40l84 20h46v-301zM50 0l421 650h80l-421 -650h-80zM468 -5c-77 0 -115 25 -115 86c0 39 20 62 46 73c-26 14 -39 34 -39 67c0 60 36 85 108 85c69 0 107 -25 107 -84c0 -33 -13 -54 -39 -68c26 -12 46 -33 46 -73c0 -61 -37 -86 -114 -86zM468 176
c20 0 38 7 38 35c0 26 -12 35 -38 35c-27 0 -39 -9 -39 -35c0 -28 18 -35 39 -35zM468 55c28 0 43 9 43 35c0 32 -18 38 -43 38c-26 0 -44 -6 -44 -38c0 -26 15 -35 44 -35z" />
    <glyph glyph-name="threeeighths" unicode="&#x215c;" horiz-adv-x="652" 
d="M70 0l421 650h80l-421 -650h-80zM488 -5c-77 0 -115 25 -115 86c0 39 20 62 46 73c-26 14 -39 34 -39 67c0 60 36 85 108 85c69 0 107 -25 107 -84c0 -33 -13 -54 -39 -68c26 -12 46 -33 46 -73c0 -61 -37 -86 -114 -86zM488 176c20 0 38 7 38 35c0 26 -12 35 -38 35
c-27 0 -39 -9 -39 -35c0 -28 18 -35 39 -35zM488 55c28 0 43 9 43 35c0 32 -18 38 -43 38c-26 0 -44 -6 -44 -38c0 -26 15 -35 44 -35zM163 402c30 0 40 13 40 36c0 32 -25 34 -40 34h-32v57h29c22 0 37 5 37 34c0 19 -7 32 -36 32c-27 0 -38 -12 -38 -43h-70
c0 68 32 102 108 102c84 0 108 -38 108 -90c0 -28 -12 -49 -39 -61c32 -12 45 -33 45 -68c0 -54 -19 -92 -112 -92c-80 0 -113 32 -113 101h72c0 -29 13 -42 41 -42z" />
    <glyph glyph-name="fiveeighths" unicode="&#x215d;" horiz-adv-x="657" 
d="M75 0l421 650h80l-421 -650h-80zM493 -5c-77 0 -115 25 -115 86c0 39 20 62 46 73c-26 14 -39 34 -39 67c0 60 36 85 108 85c69 0 107 -25 107 -84c0 -33 -13 -54 -39 -68c26 -12 46 -33 46 -73c0 -61 -37 -86 -114 -86zM493 176c20 0 38 7 38 35c0 26 -12 35 -38 35
c-27 0 -39 -9 -39 -35c0 -28 18 -35 39 -35zM493 55c28 0 43 9 43 35c0 32 -18 38 -43 38c-26 0 -44 -6 -44 -38c0 -26 15 -35 44 -35zM59 485l15 165h183v-60h-121l-5 -54c15 7 33 11 48 11c57 0 93 -19 93 -95c0 -69 -26 -108 -110 -108c-80 0 -112 32 -112 101h72
c0 -30 13 -42 40 -42s38 13 38 49c0 35 -9 47 -38 47c-10 0 -26 -7 -33 -14h-70z" />
    <glyph glyph-name="seveneighths" unicode="&#x215e;" horiz-adv-x="632" 
d="M50 0l421 650h80l-421 -650h-80zM468 -5c-77 0 -115 25 -115 86c0 39 20 62 46 73c-26 14 -39 34 -39 67c0 60 36 85 108 85c69 0 107 -25 107 -84c0 -33 -13 -54 -39 -68c26 -12 46 -33 46 -73c0 -61 -37 -86 -114 -86zM468 176c20 0 38 7 38 35c0 26 -12 35 -38 35
c-27 0 -39 -9 -39 -35c0 -28 18 -35 39 -35zM468 55c28 0 43 9 43 35c0 32 -18 38 -43 38c-26 0 -44 -6 -44 -38c0 -26 15 -35 44 -35zM160 349h-75l96 241h-129v60h205v-49z" />
    <glyph glyph-name="onesuperior" unicode="&#xb9;" horiz-adv-x="230" 
d="M170 389h-72v241h-58v40l84 20h46v-301z" />
    <glyph glyph-name="twosuperior" unicode="&#xb2;" horiz-adv-x="328" 
d="M132 593h-71c0 74 40 102 108 102c83 0 107 -39 107 -97c0 -103 -139 -85 -141 -150h143v-59h-218v44c0 125 144 102 144 163c0 25 -8 40 -35 40c-25 0 -37 -12 -37 -43z" />
    <glyph glyph-name="threesuperior" unicode="&#xb3;" horiz-adv-x="335" 
d="M171 443c30 0 40 13 40 36c0 32 -25 34 -40 34h-32v57h29c22 0 37 5 37 34c0 19 -7 32 -36 32c-27 0 -38 -12 -38 -43h-70c0 68 32 102 108 102c84 0 108 -38 108 -90c0 -28 -12 -49 -39 -61c32 -12 45 -33 45 -68c0 -54 -19 -92 -112 -92c-80 0 -113 32 -113 101h72
c0 -29 13 -42 41 -42z" />
    <glyph glyph-name="one.tnum" 
d="M116 0v114h97v422h-117v72l137 42h120v-536h97v-114h-334z" />
    <glyph glyph-name="two.tnum" 
d="M177 453h-138c0 153 85 209 231 209c175 0 228 -82 228 -207c0 -223 -314 -178 -314 -341h318v-114h-465v89c0 275 321 217 321 363c0 61 -20 96 -88 96c-64 0 -93 -25 -93 -95z" />
    <glyph glyph-name="three.tnum" 
d="M270 102c74 0 99 33 99 90c0 80 -60 83 -97 83h-61v110h54c54 0 91 11 91 83c0 48 -17 80 -89 80c-67 0 -94 -26 -94 -95h-137c0 140 69 209 231 209c179 0 229 -80 229 -191c0 -66 -33 -113 -101 -137c75 -22 114 -71 114 -149c0 -116 -40 -197 -239 -197
c-170 0 -239 67 -239 208h140c0 -64 31 -94 99 -94z" />
    <glyph glyph-name="four.tnum" 
d="M312 0v130h-295v111l260 409h175v-406h71v-114h-71v-130h-140zM138 244h174v282z" />
    <glyph glyph-name="five.tnum" 
d="M54 299l31 351h390v-114h-271l-11 -143c36 19 79 31 116 31c122 0 198 -41 198 -205c0 -147 -56 -231 -235 -231c-170 0 -239 67 -239 208h140c0 -67 31 -94 99 -94s95 30 95 117c0 86 -23 109 -95 109c-25 0 -63 -15 -79 -29h-139z" />
    <glyph glyph-name="six.tnum" 
d="M180 457v-93c42 24 76 34 135 34c144 0 195 -66 195 -194c0 -123 -50 -216 -235 -216c-190 0 -235 98 -235 215v250c0 140 72 209 229 209c167 0 233 -68 233 -198h-140c0 56 -25 84 -93 84c-56 0 -89 -19 -89 -91zM278 305c-41 0 -76 -13 -98 -34v-61
c0 -69 18 -108 92 -108c83 0 98 38 98 101c0 73 -20 102 -92 102z" />
    <glyph glyph-name="seven.tnum" 
d="M276 0h-146l221 536h-309v114h454v-98z" />
    <glyph glyph-name="eight.tnum" 
d="M270 -12c-164 0 -245 53 -245 184c0 92 50 139 114 162c-63 27 -98 73 -98 148c0 127 77 180 229 180c147 0 228 -52 228 -177c0 -76 -34 -123 -97 -151c62 -23 113 -70 113 -162c0 -131 -80 -184 -244 -184zM270 381c48 0 91 16 91 83c0 64 -27 84 -91 84
s-91 -20 -91 -84c0 -67 43 -83 91 -83zM270 102c68 0 102 24 102 85c0 77 -41 92 -102 92s-102 -15 -102 -92c0 -61 34 -85 102 -85z" />
    <glyph glyph-name="nine.tnum" 
d="M360 193v96c-42 -24 -76 -34 -135 -34c-144 0 -195 66 -195 194c0 123 50 213 235 213c190 0 235 -98 235 -215v-250c0 -140 -71 -209 -228 -209c-173 0 -234 65 -234 198h140c0 -56 26 -84 94 -84c56 0 88 19 88 91zM262 348c41 0 76 13 98 34v58c0 69 -18 108 -92 108
c-83 0 -98 -38 -98 -101c0 -73 20 -99 92 -99z" />
    <glyph glyph-name="zero.tnum" 
d="M270 102c76 0 97 24 97 100v243c0 85 -26 103 -97 103s-97 -18 -97 -103v-243c0 -76 21 -100 97 -100zM270 662c162 0 237 -62 237 -221v-230c0 -159 -77 -223 -237 -223s-237 64 -237 223v230c0 159 75 221 237 221z" />
    <glyph glyph-name="dollar.tnum" 
d="M485 225c0 -70 -9 -142 -162 -155v-90h-106v90c-125 11 -163 66 -163 167h138c0 -47 21 -59 79 -59c56 0 76 15 76 47c0 44 -12 56 -100 63c-152 12 -188 57 -188 148s56 142 158 153v81h106v-81c111 -11 154 -58 154 -168h-138c0 26 0 61 -73 61c-59 0 -69 -22 -69 -50
c0 -36 12 -50 79 -56c179 -15 209 -48 209 -151z" />
    <glyph glyph-name="cent.tnum" 
d="M275 477c-69 0 -88 -29 -88 -111v-82c0 -87 22 -111 88 -111c53 0 79 15 79 82h136c0 -128 -60 -177 -159 -189v-86h-106v85c-118 12 -176 73 -176 229v62c0 159 59 217 176 229v85h106v-86c101 -12 159 -60 159 -189h-136c0 69 -27 82 -79 82z" />
    <glyph glyph-name="sterling.tnum" 
d="M336 0h-306v114c74 0 103 22 103 93c0 20 -7 47 -14 67h-89v82h63c-14 35 -30 86 -30 131c0 115 66 175 205 175c138 0 206 -42 206 -182h-140c0 45 -16 68 -64 68c-47 0 -65 -20 -65 -67c0 -45 14 -85 21 -125h109v-82h-97c3 -17 6 -34 6 -50c0 -50 -12 -83 -41 -110
h101c51 0 66 18 66 73h140c0 -138 -44 -187 -174 -187z" />
    <glyph glyph-name="Euro.tnum" 
d="M299 102c64 0 91 27 91 104h138c0 -152 -67 -218 -229 -218c-161 0 -234 73 -234 233v17h-53v60h53v53h-53v60h53v18c0 165 78 233 234 233c162 0 229 -65 229 -217h-138c0 73 -27 103 -91 103c-61 0 -94 -26 -94 -98v-39h136l-10 -60h-126v-53h118l-10 -60h-108v-38
c0 -72 35 -98 94 -98z" />
    <glyph glyph-name="yen.tnum" 
d="M82 139h118v53h-118v60h112l-178 398h151l102 -285h2l102 285h151l-178 -398h112v-60h-118v-53h118v-60h-118v-79h-140v79h-118v60z" />
    <glyph glyph-name="numbersign.tnum" 
d="M499 234l-7 -78h-94l-13 -156h-91l13 156h-106l-13 -156h-90l14 156h-94l7 78h94l16 183h-94l7 78h94l13 155h90l-14 -155h106l14 155h91l-14 -155h94l-7 -78h-94l-16 -183h94zM224 417l-16 -183h106l16 183h-106z" />
    <glyph glyph-name="percent.tnum" 
d="M17 0l417 650h89l-417 -650h-89zM134 372c-88 0 -130 35 -130 145c0 109 42 145 130 145s130 -36 130 -145c0 -110 -42 -145 -130 -145zM134 441c32 0 45 15 45 76s-13 76 -45 76s-45 -15 -45 -76s13 -76 45 -76zM406 -12c-88 0 -130 35 -130 145c0 109 42 145 130 145
s130 -36 130 -145c0 -110 -42 -145 -130 -145zM406 57c32 0 45 15 45 76s-13 76 -45 76s-45 -15 -45 -76s13 -76 45 -76z" />
    <glyph glyph-name="one.onum" horiz-adv-x="358" 
d="M278 0h-136v390h-92v67l144 43h84v-500z" />
    <glyph glyph-name="two.onum" horiz-adv-x="512" 
d="M35 0v55c0 250 298 181 298 284c0 41 -20 63 -77 63c-56 0 -79 -22 -79 -63h-134c0 124 87 173 213 173c138 0 213 -54 213 -170c0 -175 -295 -116 -295 -232h303v-110h-442z" />
    <glyph glyph-name="three.onum" horiz-adv-x="535" 
d="M244 -182c-58 0 -135 13 -188 35v115c48 -21 126 -40 188 -40c91 0 120 41 120 110c0 89 -31 104 -107 104h-63v106h63c49 0 74 25 74 85c0 47 -22 69 -79 69c-56 0 -78 -22 -78 -63h-134c0 124 86 173 212 173c138 0 215 -56 215 -172c0 -67 -30 -113 -91 -140
c84 -23 124 -77 124 -167c0 -132 -59 -215 -256 -215z" />
    <glyph glyph-name="four.onum" horiz-adv-x="542" 
d="M315 -170v170h-295v102l262 398h169v-395h71v-105h-71v-170h-136zM141 105h174v271z" />
    <glyph glyph-name="five.onum" horiz-adv-x="526" 
d="M225 -182c-58 0 -132 14 -185 36v115c48 -21 121 -41 183 -41c98 0 131 42 131 128c0 84 -28 112 -97 112c-31 0 -67 -15 -91 -27h-113l32 359h363v-110h-252l-13 -151c28 16 72 28 114 28c121 0 193 -56 193 -211c0 -137 -54 -238 -265 -238z" />
    <glyph glyph-name="six.onum" horiz-adv-x="536" 
d="M272 295c-38 0 -70 -12 -91 -30v-67c0 -69 21 -100 85 -100c73 0 94 35 94 98c0 76 -26 99 -88 99zM483 452h-134c0 56 -25 80 -84 80c-49 0 -84 -20 -84 -85v-89c35 16 72 27 125 27c142 0 190 -62 190 -184c0 -123 -52 -213 -227 -213c-180 0 -224 94 -224 211v234
c0 140 71 209 220 209c153 0 214 -69 218 -190z" />
    <glyph glyph-name="seven.onum" horiz-adv-x="460" 
d="M230 -170h-142l211 560h-279v110h420v-94z" />
    <glyph glyph-name="eight.onum" horiz-adv-x="528" 
d="M264 642c136 0 214 -55 214 -175c0 -74 -34 -119 -92 -145c59 -20 107 -64 107 -155c0 -127 -76 -179 -229 -179s-229 52 -229 179c0 91 48 135 107 155c-58 26 -92 71 -92 145c0 120 78 175 214 175zM264 368c43 0 83 17 83 82c0 62 -25 82 -83 82s-83 -20 -83 -82
c0 -65 40 -82 83 -82zM264 99c62 0 94 23 94 82c0 75 -38 92 -94 92s-94 -17 -94 -92c0 -59 32 -82 94 -82z" />
    <glyph glyph-name="nine.onum" horiz-adv-x="531" 
d="M259 178c37 0 69 13 91 32v89c0 76 -23 103 -87 103c-73 0 -92 -36 -92 -111c0 -84 26 -113 88 -113zM254 -72c67 0 96 19 96 87v99c-35 -16 -72 -27 -125 -27c-145 0 -190 76 -190 207c0 141 61 218 227 218c180 0 224 -92 224 -209v-279c0 -146 -66 -206 -230 -206
c-62 0 -128 14 -177 31v115c54 -22 116 -36 175 -36z" />
    <glyph glyph-name="zero.onum" horiz-adv-x="536" 
d="M360 200v100c0 85 -36 102 -92 102c-55 0 -92 -17 -92 -102v-100c0 -85 37 -102 92 -102c56 0 92 17 92 102zM496 290v-80c0 -174 -88 -222 -228 -222c-139 0 -228 48 -228 222v80c0 174 89 222 228 222c140 0 228 -48 228 -222z" />
    <glyph glyph-name="dollar.onum" horiz-adv-x="531" 
d="M481 150c0 -70 -9 -142 -162 -155v-90h-106v90c-125 11 -163 66 -163 167h136c0 -47 23 -59 81 -59c56 0 78 15 78 47c0 44 -14 56 -102 63c-152 12 -188 57 -188 148s56 142 158 153v81h106v-81c111 -11 154 -58 154 -168h-136c0 26 -2 61 -75 61c-59 0 -71 -22 -71 -50
c0 -36 14 -50 81 -56c179 -15 209 -48 209 -151z" />
    <glyph glyph-name="cent.onum" horiz-adv-x="541" 
d="M276 402c-69 0 -88 -29 -88 -111v-82c0 -87 22 -111 88 -111c53 0 79 15 79 82h134c0 -128 -58 -177 -157 -189v-86h-106v85c-118 12 -174 73 -174 229v62c0 159 57 217 174 229v85h106v-86c101 -12 157 -60 157 -189h-134c0 69 -27 82 -79 82z" />
    <glyph glyph-name="sterling.onum" horiz-adv-x="568" 
d="M352 0h-300v110c103 0 121 63 89 154h-89v82h63c-14 35 -30 76 -30 121c0 115 64 175 203 175c138 0 202 -42 202 -182h-136c0 45 -16 72 -64 72c-47 0 -69 -24 -69 -71c0 -45 11 -75 20 -115h112v-82h-97c11 -66 6 -113 -35 -154h103c51 0 66 18 66 73h136
c0 -138 -44 -183 -174 -183z" />
    <glyph glyph-name="Euro.onum" horiz-adv-x="596" 
d="M327 102c64 0 91 22 91 99h136c0 -152 -65 -213 -227 -213c-161 0 -232 73 -232 233v10h-55v60h55v47h-55v60h55v11c0 165 76 233 232 233c162 0 227 -60 227 -212h-136c0 73 -27 98 -91 98c-61 0 -94 -26 -94 -98v-32h136l-10 -60h-126v-47h118l-10 -60h-108v-31
c0 -72 35 -98 94 -98z" />
    <glyph glyph-name="yen.onum" horiz-adv-x="548" 
d="M86 139h118v53h-118v60h112l-178 378h151l102 -268h2l102 268h151l-178 -378h112v-60h-118v-53h118v-60h-118v-79h-140v79h-118v60z" />
    <glyph glyph-name="numbersign.onum" horiz-adv-x="581" 
d="M521 234l-7 -78h-94l-13 -156h-91l13 156h-106l-13 -156h-90l14 156h-94l7 78h94l13 163h-94l7 78h94l13 155h90l-14 -155h106l14 155h91l-14 -155h94l-7 -78h-94l-13 -163h94zM243 397l-13 -163h106l13 163h-106z" />
    <glyph glyph-name="percent.onum" horiz-adv-x="652" 
d="M180 352c-95 0 -140 35 -140 145c0 109 45 145 140 145s140 -36 140 -145c0 -110 -45 -145 -140 -145zM180 421c39 0 55 15 55 76s-16 76 -55 76s-55 -15 -55 -76s16 -76 55 -76zM68 0l427 630h89l-427 -630h-89zM472 278c95 0 140 -35 140 -145
c0 -109 -45 -145 -140 -145s-140 36 -140 145c0 110 45 145 140 145zM472 209c-39 0 -55 -15 -55 -76s16 -76 55 -76s55 15 55 76s-16 76 -55 76z" />
    <glyph glyph-name="a.smcp" horiz-adv-x="500" 
d="M351 0l-22 98h-158l-22 -98h-134l147 556h176l147 -556h-134zM249 448l-56 -246h114l-56 246h-2z" />
    <glyph glyph-name="b.smcp" horiz-adv-x="525" 
d="M60 0v556h239c128 0 173 -45 173 -144c0 -65 -30 -106 -84 -127c72 -21 97 -67 97 -137c0 -96 -40 -148 -178 -148h-247zM287 228h-91v-118h90c49 0 63 22 63 60c0 37 -14 58 -62 58zM196 446v-114h80c46 0 61 19 61 60c0 40 -18 54 -61 54h-80z" />
    <glyph glyph-name="c.smcp" horiz-adv-x="504" 
d="M256 98c60 0 74 27 74 78h134c0 -109 -40 -188 -208 -188c-144 0 -216 54 -216 201v178c0 142 65 201 216 201c168 0 208 -78 208 -188h-134c0 52 -14 78 -74 78c-57 0 -80 -18 -80 -85v-191c0 -63 26 -84 80 -84z" />
    <glyph glyph-name="d.smcp" horiz-adv-x="538" 
d="M290 0h-230v556h225c142 0 203 -49 203 -199v-158c0 -150 -56 -199 -198 -199zM196 110h76c67 0 80 27 80 84v166c0 58 -13 86 -80 86h-76v-336z" />
    <glyph glyph-name="e.smcp" horiz-adv-x="477" 
d="M394 332v-104h-198v-118h231v-110h-367v556h367v-110h-231v-114h198z" />
    <glyph glyph-name="f.smcp" horiz-adv-x="448" 
d="M196 0h-136v556h348v-110h-212v-114h179v-104h-179v-228z" />
    <glyph glyph-name="g.smcp" horiz-adv-x="528" 
d="M45 189v178c0 142 74 201 216 201c165 0 208 -81 208 -191h-134c0 52 -14 81 -74 81c-54 0 -80 -18 -80 -88v-185c0 -63 26 -87 80 -87c60 0 76 27 76 66v65h-83v104h219v-333h-58l-17 42c-29 -35 -77 -54 -137 -54c-135 0 -216 54 -216 201z" />
    <glyph glyph-name="h.smcp" horiz-adv-x="544" 
d="M484 556v-556h-136v228h-152v-228h-136v556h136v-224h152v224h136z" />
    <glyph glyph-name="i.smcp" horiz-adv-x="256" 
d="M60 0v556h136v-556h-136z" />
    <glyph glyph-name="j.smcp" horiz-adv-x="344" 
d="M148 446h-78v110h214v-425c0 -109 -49 -143 -139 -143c-35 0 -79 4 -105 12v112c31 -7 48 -10 69 -10c31 0 39 13 39 36v308z" />
    <glyph glyph-name="k.smcp" horiz-adv-x="487" 
d="M196 232v-232h-136v556h136v-227l128 227h152l-171 -276l172 -280h-150z" />
    <glyph glyph-name="l.smcp" horiz-adv-x="396" 
d="M60 0v556h136v-446h170v-110h-306z" />
    <glyph glyph-name="m.smcp" horiz-adv-x="694" 
d="M251 556l95 -386h2l95 386h191v-556h-134v230l5 182l-107 -412h-103l-106 412l5 -177v-235h-134v556h191z" />
    <glyph glyph-name="n.smcp" horiz-adv-x="555" 
d="M495 556v-556h-169l-140 381v-381h-126v556h169l140 -381v381h126z" />
    <glyph glyph-name="o.smcp" horiz-adv-x="526" 
d="M486 357v-157c0 -156 -71 -212 -223 -212c-151 0 -223 56 -223 212v157c0 156 72 211 223 211c152 0 223 -55 223 -211zM350 198v161c0 75 -25 99 -87 99s-87 -24 -87 -99v-161c0 -75 25 -100 87 -100s87 25 87 100z" />
    <glyph glyph-name="p.smcp" horiz-adv-x="501" 
d="M60 0v556h206c141 0 205 -48 205 -181c0 -138 -64 -185 -205 -185h-70v-190h-136zM196 446v-152h71c51 0 68 28 68 78c0 48 -16 74 -71 74h-68z" />
    <glyph glyph-name="q.smcp" horiz-adv-x="526" 
d="M486 357v-157c0 -134 -53 -194 -164 -208c4 -23 22 -31 47 -31h52l-25 -62h-74c-60 0 -110 26 -115 92c-113 13 -167 73 -167 209v157c0 156 72 211 223 211c152 0 223 -55 223 -211zM350 198v161c0 75 -25 99 -87 99s-87 -24 -87 -99v-161c0 -75 25 -100 87 -100
s87 25 87 100z" />
    <glyph glyph-name="r.smcp" horiz-adv-x="517" 
d="M380 203l107 -203h-140l-97 190h-54v-190h-136v556h202c147 0 213 -47 213 -180c0 -101 -39 -150 -95 -173zM196 446v-152h68c53 0 75 25 75 78s-22 74 -75 74h-68z" />
    <glyph glyph-name="s.smcp" horiz-adv-x="514" 
d="M256 99c65 0 82 22 82 62c0 46 -23 60 -94 70c-145 20 -199 58 -199 174c0 104 67 163 209 163c157 0 207 -60 207 -175h-134c0 46 -19 65 -75 65c-49 0 -71 -20 -71 -59c0 -50 32 -61 88 -70c175 -28 205 -66 205 -170c0 -100 -70 -170 -218 -170
c-168 0 -221 63 -221 181h136c0 -48 15 -71 85 -71z" />
    <glyph glyph-name="t.smcp" horiz-adv-x="438" 
d="M151 0v446h-131v110h398v-110h-131v-446h-136z" />
    <glyph glyph-name="u.smcp" horiz-adv-x="534" 
d="M55 556h136v-377c0 -57 19 -81 76 -81s76 24 76 81v377h136v-377c0 -144 -72 -190 -212 -190s-212 46 -212 190v377z" />
    <glyph glyph-name="v.smcp" horiz-adv-x="494" 
d="M160 556l86 -413h2l86 413h145l-149 -556h-166l-149 556h145z" />
    <glyph glyph-name="w.smcp" horiz-adv-x="768" 
d="M309 556h150l76 -412h2l63 412h138l-115 -556h-165l-74 432l-74 -432h-165l-115 556h138l63 -412h2z" />
    <glyph glyph-name="x.smcp" horiz-adv-x="474" 
d="M458 556l-145 -269l149 -287h-147l-78 184l-78 -184h-147l149 287l-145 269h148l73 -169l73 169h148z" />
    <glyph glyph-name="y.smcp" horiz-adv-x="465" 
d="M165 0v203l-150 353h144l73 -230h2l73 230h143l-149 -353v-203h-136z" />
    <glyph glyph-name="z.smcp" horiz-adv-x="481" 
d="M55 446v110h376v-88l-223 -358h233v-110h-391v87l223 359h-218z" />
    <glyph glyph-name="ampersand.smcp" horiz-adv-x="598" 
d="M535 228h-57v-74c0 -41 21 -53 61 -53v-101c-60 0 -96 6 -131 44c-34 -32 -83 -56 -146 -56c-147 0 -211 49 -211 161c0 64 35 114 100 133c-60 23 -88 70 -88 126c0 105 63 158 197 158c144 0 202 -49 202 -173h-135c0 44 -23 63 -67 63c-39 0 -62 -18 -62 -64
c0 -47 30 -60 71 -60h266v-104zM266 98c47 0 76 21 76 73v57h-86c-38 0 -68 -16 -68 -63c0 -51 30 -67 78 -67z" />
    <glyph glyph-name="one.smcp" horiz-adv-x="342" 
d="M262 0h-138v446h-94v69l138 42h94v-557z" />
    <glyph glyph-name="two.smcp" horiz-adv-x="487" 
d="M41 0v67c0 248 268 195 268 324c0 50 -21 67 -65 67c-45 0 -64 -23 -64 -67h-134c0 117 62 177 198 177c151 0 201 -66 201 -177c0 -187 -266 -164 -266 -281h279v-110h-417z" />
    <glyph glyph-name="three.smcp" horiz-adv-x="501" 
d="M176 391h-134c0 129 71 177 206 177c143 0 200 -63 200 -167c0 -57 -35 -99 -93 -117c74 -15 111 -63 111 -130c0 -88 -45 -165 -212 -165c-161 0 -214 57 -214 174h134c0 -39 14 -65 82 -65c62 0 74 25 74 66c0 57 -31 66 -81 66h-40v104h40c37 0 63 8 63 59
c0 41 -17 65 -66 65c-52 0 -70 -21 -70 -67z" />
    <glyph glyph-name="four.smcp" horiz-adv-x="486" 
d="M271 0v100h-251v107l224 349h163v-346h59v-110h-59v-100h-136zM134 210h137v216z" />
    <glyph glyph-name="five.smcp" horiz-adv-x="503" 
d="M171 247h-114l30 309h342v-110h-232l-8 -107c33 13 69 20 98 20c130 0 181 -52 181 -182c0 -124 -67 -189 -217 -189c-166 0 -211 63 -211 175h136c0 -45 21 -65 75 -65c61 0 79 24 79 81c0 67 -20 93 -70 93c-26 0 -54 -4 -89 -25z" />
    <glyph glyph-name="six.smcp" horiz-adv-x="508" 
d="M181 382v-65c30 17 72 30 110 30c135 0 177 -59 177 -172c0 -126 -63 -187 -213 -187c-148 0 -210 63 -210 208v163c0 151 75 209 212 209c118 0 201 -29 201 -166h-136c0 39 -18 56 -69 56c-49 0 -72 -17 -72 -76zM259 262c-27 0 -52 -8 -78 -23v-65
c0 -53 19 -76 75 -76c61 0 74 34 74 80c0 59 -18 84 -71 84z" />
    <glyph glyph-name="seven.smcp" horiz-adv-x="424" 
d="M242 0h-141l166 446h-247v110h384v-91z" />
    <glyph glyph-name="eight.smcp" horiz-adv-x="514" 
d="M257 -12c-157 0 -222 55 -222 157c0 62 43 116 114 138c-66 22 -95 75 -95 134c0 107 80 151 203 151c124 0 202 -44 202 -151c0 -59 -29 -112 -94 -134c71 -22 114 -76 114 -138c0 -102 -65 -157 -222 -157zM269 238h-23c-48 0 -74 -27 -74 -69c0 -49 24 -71 85 -71
s85 22 85 71c0 42 -27 69 -73 69zM243 330h27c25 0 55 16 55 60c0 52 -25 68 -68 68s-69 -16 -69 -68c0 -44 30 -60 55 -60z" />
    <glyph glyph-name="nine.smcp" horiz-adv-x="510" 
d="M329 174v65c-30 -17 -73 -30 -111 -30c-135 0 -178 59 -178 172c0 126 64 187 214 187c148 0 211 -63 211 -208v-163c0 -151 -76 -209 -213 -209c-118 0 -202 29 -202 166h136c0 -39 19 -56 70 -56c52 0 73 17 73 76zM250 294c27 0 53 8 79 23v65c0 53 -20 76 -76 76
c-61 0 -75 -34 -75 -80c0 -59 19 -84 72 -84z" />
    <glyph glyph-name="zero.smcp" horiz-adv-x="503" 
d="M463 359v-162c0 -151 -69 -209 -211 -209c-143 0 -212 58 -212 209v162c0 151 72 209 212 209s211 -58 211 -209zM327 185v186c0 66 -22 87 -75 87c-54 0 -76 -21 -76 -87v-186c0 -69 22 -87 76 -87c53 0 75 18 75 87z" />
    <glyph glyph-name="dollar.smcp" horiz-adv-x="509" 
d="M466 177c0 -70 -9 -142 -162 -155v-90h-106v90c-125 11 -163 66 -163 167h136c0 -47 23 -59 81 -59c56 0 78 15 78 47c0 44 -14 56 -102 63c-152 12 -188 57 -188 148s56 142 158 153v81h106v-81c111 -11 154 -58 154 -168h-136c0 26 -2 61 -75 61c-59 0 -71 -22 -71 -50
c0 -36 14 -50 81 -56c179 -15 209 -48 209 -151z" />
    <glyph glyph-name="cent.smcp" horiz-adv-x="522" 
d="M263 430c-69 0 -88 -29 -88 -111v-82c0 -87 22 -111 88 -111c53 0 79 15 79 82h134c0 -128 -58 -177 -157 -189v-86h-106v85c-118 12 -174 73 -174 229v62c0 159 57 217 174 229v85h106v-86c101 -12 157 -60 157 -189h-134c0 69 -27 82 -79 82z" />
    <glyph glyph-name="sterling.smcp" horiz-adv-x="529" 
d="M203 394c0 -39 9 -69 14 -91h87v-76h-73c7 -40 3 -84 -27 -117h79c68 0 77 22 77 80h134c0 -160 -53 -190 -172 -190h-282v110c58 0 90 26 90 72c0 13 -2 28 -8 45h-82v76h57c-16 32 -29 62 -29 103c0 103 62 159 194 159c149 0 194 -56 194 -172h-134
c0 43 -16 62 -60 62c-40 0 -59 -19 -59 -61z" />
    <glyph glyph-name="Euro.smcp" horiz-adv-x="551" 
d="M30 253h57v50h-57v54h57v10c0 142 74 201 216 201c165 0 208 -81 208 -191h-134c0 52 -14 81 -74 81c-54 0 -80 -22 -80 -92v-9h118l-10 -54h-108v-50h98l-9 -54h-89v-14c0 -63 26 -87 80 -87c60 0 74 30 74 81h134c0 -109 -43 -191 -208 -191c-135 0 -216 54 -216 201
v10h-57v54z" />
    <glyph glyph-name="yen.smcp" horiz-adv-x="496" 
d="M67 120h113v42h-113v58h106l-143 336h144l73 -230h2l73 230h144l-143 -336h106v-58h-113v-42h113v-58h-113v-62h-136v62h-113v58z" />
    <glyph glyph-name="numbersign.smcp" horiz-adv-x="518" 
d="M469 211l-7 -80h-79l-10 -131h-93l10 131h-88l-10 -131h-93l10 131h-79l7 80h79l12 134h-79l7 80h79l11 131h93l-11 -131h88l11 131h93l-11 -131h79l-7 -80h-79l-12 -134h79zM221 345l-12 -134h88l12 134h-88z" />
    <glyph glyph-name="percent.smcp" horiz-adv-x="614" 
d="M530 556l-373 -556h-89l373 556h89zM125 444c0 -52 12 -65 42 -65c29 0 42 13 42 63c0 49 -13 62 -42 62s-42 -14 -42 -60zM397 118c0 -52 12 -65 42 -65c29 0 42 13 42 63c0 49 -13 62 -42 62s-42 -14 -42 -60zM286 441c0 -97 -38 -127 -119 -127
c-82 0 -119 30 -119 127c0 96 37 127 119 127c81 0 119 -31 119 -127zM558 115c0 -97 -38 -127 -119 -127c-82 0 -119 30 -119 127c0 96 37 127 119 127c81 0 119 -31 119 -127z" />
    <glyph glyph-name="one.tnum_smcp" horiz-adv-x="500" 
d="M109 0v110h94v336h-99v69l118 42h119v-447h94v-110h-326z" />
    <glyph glyph-name="two.tnum_smcp" horiz-adv-x="500" 
d="M41 0v67c0 248 268 195 268 324c0 50 -21 67 -65 67c-45 0 -64 -23 -64 -67h-134c0 117 62 177 198 177c151 0 201 -66 201 -177c0 -187 -266 -164 -266 -281h279v-110h-417z" />
    <glyph glyph-name="three.tnum_smcp" horiz-adv-x="500" 
d="M173 391h-134c0 129 71 177 206 177c143 0 200 -63 200 -167c0 -57 -35 -99 -93 -117c74 -15 111 -63 111 -130c0 -88 -45 -165 -212 -165c-161 0 -214 57 -214 174h134c0 -39 14 -65 82 -65c62 0 74 25 74 66c0 57 -31 66 -81 66h-40v104h40c37 0 63 8 63 59
c0 41 -17 65 -66 65c-52 0 -70 -21 -70 -67z" />
    <glyph glyph-name="four.tnum_smcp" horiz-adv-x="500" 
d="M278 0v100h-251v107l224 349h163v-346h59v-110h-59v-100h-136zM141 210h137v216z" />
    <glyph glyph-name="five.tnum_smcp" horiz-adv-x="500" 
d="M167 247h-114l30 309h342v-110h-232l-8 -107c33 13 69 20 98 20c130 0 181 -52 181 -182c0 -124 -67 -189 -217 -189c-166 0 -211 63 -211 175h136c0 -45 21 -65 75 -65c61 0 79 24 79 81c0 67 -20 93 -70 93c-26 0 -54 -4 -89 -25z" />
    <glyph glyph-name="six.tnum_smcp" horiz-adv-x="500" 
d="M174 382v-65c30 17 72 30 110 30c135 0 177 -59 177 -172c0 -126 -63 -187 -213 -187c-148 0 -210 63 -210 208v163c0 151 75 209 212 209c118 0 201 -29 201 -166h-136c0 39 -18 56 -69 56c-49 0 -72 -17 -72 -76zM252 262c-27 0 -52 -8 -78 -23v-65
c0 -53 19 -76 75 -76c61 0 74 34 74 80c0 59 -18 84 -71 84z" />
    <glyph glyph-name="seven.tnum_smcp" horiz-adv-x="500" 
d="M276 0h-141l176 446h-257v110h394v-91z" />
    <glyph glyph-name="eight.tnum_smcp" horiz-adv-x="500" 
d="M250 -12c-157 0 -222 55 -222 157c0 62 43 116 114 138c-66 22 -95 75 -95 134c0 107 80 151 203 151c124 0 202 -44 202 -151c0 -59 -29 -112 -94 -134c71 -22 114 -76 114 -138c0 -102 -65 -157 -222 -157zM262 238h-23c-48 0 -74 -27 -74 -69c0 -49 24 -71 85 -71
s85 22 85 71c0 42 -27 69 -73 69zM236 330h27c25 0 55 16 55 60c0 52 -25 68 -68 68s-69 -16 -69 -68c0 -44 30 -60 55 -60z" />
    <glyph glyph-name="nine.tnum_smcp" horiz-adv-x="500" 
d="M326 174v65c-30 -17 -73 -30 -111 -30c-135 0 -178 59 -178 172c0 126 64 187 214 187c148 0 211 -63 211 -208v-163c0 -151 -76 -209 -213 -209c-118 0 -202 29 -202 166h136c0 -39 19 -56 70 -56c52 0 73 17 73 76zM247 294c27 0 53 8 79 23v65c0 53 -20 76 -76 76
c-61 0 -75 -34 -75 -80c0 -59 19 -84 72 -84z" />
    <glyph glyph-name="zero.tnum_smcp" horiz-adv-x="500" 
d="M461 359v-162c0 -151 -69 -209 -211 -209c-143 0 -212 58 -212 209v162c0 151 72 209 212 209s211 -58 211 -209zM325 185v186c0 66 -22 87 -75 87c-54 0 -76 -21 -76 -87v-186c0 -69 22 -87 76 -87c53 0 75 18 75 87z" />
    <glyph glyph-name="dollar.tnum_smcp" horiz-adv-x="500" 
d="M465 177c0 -70 -9 -142 -162 -155v-90h-106v90c-125 11 -163 66 -163 167h136c0 -47 23 -59 81 -59c56 0 78 15 78 47c0 44 -14 56 -102 63c-152 12 -188 57 -188 148s56 142 158 153v81h106v-81c111 -11 154 -58 154 -168h-136c0 26 -2 61 -75 61c-59 0 -71 -22 -71 -50
c0 -36 14 -50 81 -56c179 -15 209 -48 209 -151z" />
    <glyph glyph-name="cent.tnum_smcp" horiz-adv-x="500" 
d="M255 430c-69 0 -88 -29 -88 -111v-82c0 -87 22 -111 88 -111c53 0 79 15 79 82h134c0 -128 -58 -177 -157 -189v-86h-106v85c-118 12 -174 73 -174 229v62c0 159 57 217 174 229v85h106v-86c101 -12 157 -60 157 -189h-134c0 69 -27 82 -79 82z" />
    <glyph glyph-name="sterling.tnum_smcp" horiz-adv-x="500" 
d="M187 394c0 -39 9 -69 14 -91h87v-76h-73c7 -40 3 -84 -27 -117h79c68 0 77 22 77 80h134c0 -160 -53 -190 -172 -190h-282v110c58 0 90 26 90 72c0 13 -2 28 -8 45h-82v76h57c-16 32 -29 62 -29 103c0 103 62 159 194 159c149 0 194 -56 194 -172h-134
c0 43 -16 62 -60 62c-40 0 -59 -19 -59 -61z" />
    <glyph glyph-name="Euro.tnum_smcp" horiz-adv-x="500" 
d="M9 253h57v50h-57v54h57v10c0 142 74 201 216 201c165 0 208 -81 208 -191h-134c0 52 -14 81 -74 81c-54 0 -80 -22 -80 -92v-9h118l-10 -54h-108v-50h98l-9 -54h-89v-14c0 -63 26 -87 80 -87c60 0 74 30 74 81h134c0 -109 -43 -191 -208 -191c-135 0 -216 54 -216 201v10
h-57v54z" />
    <glyph glyph-name="yen.tnum_smcp" horiz-adv-x="500" 
d="M69 120h113v42h-113v58h106l-143 336h144l73 -230h2l73 230h144l-143 -336h106v-58h-113v-42h113v-58h-113v-62h-136v62h-113v58z" />
    <glyph glyph-name="numbersign.tnum_smcp" horiz-adv-x="500" 
d="M460 211l-7 -80h-79l-10 -131h-93l10 131h-88l-10 -131h-93l10 131h-79l7 80h79l12 134h-79l7 80h79l11 131h93l-11 -131h88l11 131h93l-11 -131h79l-7 -80h-79l-12 -134h79zM212 345l-12 -134h88l12 134h-88z" />
    <glyph glyph-name="percent.tnum_smcp" horiz-adv-x="500" 
d="M477 556l-373 -556h-89l373 556h89zM72 444c0 -52 12 -65 42 -65c29 0 42 13 42 63c0 49 -13 62 -42 62s-42 -14 -42 -60zM344 118c0 -52 12 -65 42 -65c29 0 42 13 42 63c0 49 -13 62 -42 62s-42 -14 -42 -60zM233 441c0 -97 -38 -127 -119 -127c-82 0 -119 30 -119 127
c0 96 37 127 119 127c81 0 119 -31 119 -127zM505 115c0 -97 -38 -127 -119 -127c-82 0 -119 30 -119 127c0 96 37 127 119 127c81 0 119 -31 119 -127z" />
    <glyph glyph-name="acute.smcp" horiz-adv-x="235" 
d="M40 611l28 120h127l-72 -120h-83z" />
    <glyph glyph-name="grave.smcp" horiz-adv-x="235" 
d="M167 731l28 -120h-83l-72 120h127z" />
    <glyph glyph-name="circumflex.smcp" horiz-adv-x="335" 
d="M241 731l54 -120h-88l-40 54l-39 -54h-88l54 120h147z" />
    <glyph glyph-name="dieresis.smcp" horiz-adv-x="352" 
d="M40 615v106h106v-106h-106zM206 615v106h106v-106h-106z" />
    <glyph glyph-name="tilde.smcp" horiz-adv-x="416" 
d="M260 696c19 0 31 10 31 32h78c0 -88 -30 -123 -94 -123c-58 0 -74 43 -119 43c-19 0 -31 -9 -31 -32h-78c0 90 30 123 94 123c58 0 76 -43 119 -43z" />
    <glyph glyph-name="caron.smcp" horiz-adv-x="335" 
d="M295 731l-54 -120h-147l-54 120h88l39 -54l40 54h88z" />
    <glyph glyph-name="ring.smcp" horiz-adv-x="302" 
d="M151 786c70 0 111 -31 111 -93s-41 -95 -111 -95s-111 33 -111 95s41 93 111 93zM151 656c27 0 39 13 39 37c0 22 -12 35 -39 35s-39 -13 -39 -35c0 -24 12 -37 39 -37z" />
    <glyph glyph-name="breve.smcp" horiz-adv-x="332" 
d="M166 597c-85 0 -126 49 -126 134h78c0 -35 17 -53 48 -53s48 18 48 53h78c0 -85 -41 -134 -126 -134z" />
    <glyph glyph-name="macron.smcp" horiz-adv-x="330" 
d="M40 614v86h250v-86h-250z" />
    <glyph glyph-name="dotaccent.smcp" horiz-adv-x="186" 
d="M40 615v106h106v-106h-106z" />
    <glyph glyph-name="hungarumlaut.smcp" horiz-adv-x="378" 
d="M40 611l18 120h117l-52 -120h-83zM183 611l38 120h117l-72 -120h-83z" />
    <glyph glyph-name="aacute.smcp" horiz-adv-x="500" 
d="M351 0l-22 98h-158l-22 -98h-134l147 556h176l147 -556h-134zM249 448l-56 -246h114l-56 246h-2zM212 611l28 120h127l-72 -120h-83z" />
    <glyph glyph-name="agrave.smcp" horiz-adv-x="500" 
d="M351 0l-22 98h-158l-22 -98h-134l147 556h176l147 -556h-134zM249 448l-56 -246h114l-56 246h-2zM279 731l28 -120h-83l-72 120h127z" />
    <glyph glyph-name="acircumflex.smcp" horiz-adv-x="500" 
d="M351 0l-22 98h-158l-22 -98h-134l147 556h176l147 -556h-134zM249 448l-56 -246h114l-56 246h-2zM323 731l54 -120h-88l-40 54l-39 -54h-88l54 120h147z" />
    <glyph glyph-name="adieresis.smcp" horiz-adv-x="500" 
d="M351 0l-22 98h-158l-22 -98h-134l147 556h176l147 -556h-134zM249 448l-56 -246h114l-56 246h-2zM114 615v106h106v-106h-106zM280 615v106h106v-106h-106z" />
    <glyph glyph-name="atilde.smcp" horiz-adv-x="500" 
d="M351 0l-22 98h-158l-22 -98h-134l147 556h176l147 -556h-134zM249 448l-56 -246h114l-56 246h-2zM302 696c19 0 31 10 31 32h78c0 -88 -30 -123 -94 -123c-58 0 -74 43 -119 43c-19 0 -31 -9 -31 -32h-78c0 90 30 123 94 123c58 0 76 -43 119 -43z" />
    <glyph glyph-name="aring.smcp" horiz-adv-x="500" 
d="M351 0l-22 98h-158l-22 -98h-134l147 556h176l147 -556h-134zM249 448l-56 -246h114l-56 246h-2zM250 786c70 0 111 -31 111 -93s-41 -95 -111 -95s-111 33 -111 95s41 93 111 93zM250 656c27 0 39 13 39 37c0 22 -12 35 -39 35s-39 -13 -39 -35c0 -24 12 -37 39 -37z
" />
    <glyph glyph-name="amacron.smcp" horiz-adv-x="500" 
d="M351 0l-22 98h-158l-22 -98h-134l147 556h176l147 -556h-134zM249 448l-56 -246h114l-56 246h-2zM125 614v86h250v-86h-250z" />
    <glyph glyph-name="abreve.smcp" horiz-adv-x="500" 
d="M351 0l-22 98h-158l-22 -98h-134l147 556h176l147 -556h-134zM249 448l-56 -246h114l-56 246h-2zM250 597c-85 0 -126 49 -126 134h78c0 -35 17 -53 48 -53s48 18 48 53h78c0 -85 -41 -134 -126 -134z" />
    <glyph glyph-name="aogonek.smcp" horiz-adv-x="500" 
d="M351 0l-22 98h-158l-22 -98h-134l147 556h176l147 -556c-26 -22 -42 -42 -42 -70c0 -19 13 -26 33 -26h9v-78h-57c-51 0 -84 22 -84 71c0 37 21 76 60 103h-53zM249 448l-56 -246h114l-56 246h-2z" />
    <glyph glyph-name="ae.smcp" horiz-adv-x="768" 
d="M685 332v-104h-198v-118h231v-110h-367l-1 98h-158l-43 -98h-134l270 556h433v-110h-231v-114h198zM348 448l-111 -246h114l-1 246h-2z" />
    <glyph glyph-name="bdotaccent.smcp" horiz-adv-x="525" 
d="M60 0v556h239c128 0 173 -45 173 -144c0 -65 -30 -106 -84 -127c72 -21 97 -67 97 -137c0 -96 -40 -148 -178 -148h-247zM287 228h-91v-118h90c49 0 63 22 63 60c0 37 -14 58 -62 58zM196 446v-114h80c46 0 61 19 61 60c0 40 -18 54 -61 54h-80zM209 615v106h106v-106
h-106z" />
    <glyph glyph-name="cacute.smcp" horiz-adv-x="504" 
d="M256 98c60 0 74 27 74 78h134c0 -109 -40 -188 -208 -188c-144 0 -216 54 -216 201v178c0 142 65 201 216 201c168 0 208 -78 208 -188h-134c0 52 -14 78 -74 78c-57 0 -80 -18 -80 -85v-191c0 -63 26 -84 80 -84zM214 611l28 120h127l-72 -120h-83z" />
    <glyph glyph-name="ccircumflex.smcp" horiz-adv-x="504" 
d="M256 98c60 0 74 27 74 78h134c0 -109 -40 -188 -208 -188c-144 0 -216 54 -216 201v178c0 142 65 201 216 201c168 0 208 -78 208 -188h-134c0 52 -14 78 -74 78c-57 0 -80 -18 -80 -85v-191c0 -63 26 -84 80 -84zM330 731l54 -120h-88l-40 54l-39 -54h-88l54 120h147z
" />
    <glyph glyph-name="ccaron.smcp" horiz-adv-x="504" 
d="M256 98c60 0 74 27 74 78h134c0 -109 -40 -188 -208 -188c-144 0 -216 54 -216 201v178c0 142 65 201 216 201c168 0 208 -78 208 -188h-134c0 52 -14 78 -74 78c-57 0 -80 -18 -80 -85v-191c0 -63 26 -84 80 -84zM379 731l-54 -120h-147l-54 120h88l39 -54l40 54h88z
" />
    <glyph glyph-name="ccedilla.smcp" horiz-adv-x="504" 
d="M256 98c60 0 74 27 74 78h134c0 -104 -36 -180 -186 -187l-8 -30c43 -5 72 -24 72 -74c0 -58 -29 -86 -111 -86h-69v62h67c28 0 35 8 35 24c0 17 -7 24 -35 24h-33l24 80c-120 9 -180 65 -180 200v178c0 142 65 201 216 201c168 0 208 -78 208 -188h-134
c0 52 -14 78 -74 78c-57 0 -80 -18 -80 -85v-191c0 -63 26 -84 80 -84z" />
    <glyph glyph-name="cdotaccent.smcp" horiz-adv-x="504" 
d="M256 98c60 0 74 27 74 78h134c0 -109 -40 -188 -208 -188c-144 0 -216 54 -216 201v178c0 142 65 201 216 201c168 0 208 -78 208 -188h-134c0 52 -14 78 -74 78c-57 0 -80 -18 -80 -85v-191c0 -63 26 -84 80 -84zM204 615v106h106v-106h-106z" />
    <glyph glyph-name="dcaron.smcp" horiz-adv-x="538" 
d="M290 0h-230v556h225c142 0 203 -49 203 -199v-158c0 -150 -56 -199 -198 -199zM196 110h76c67 0 80 27 80 84v166c0 58 -13 86 -80 86h-76v-336zM387 731l-54 -120h-147l-54 120h88l39 -54l40 54h88z" />
    <glyph glyph-name="ddotaccent.smcp" horiz-adv-x="538" 
d="M290 0h-230v556h225c142 0 203 -49 203 -199v-158c0 -150 -56 -199 -198 -199zM196 110h76c67 0 80 27 80 84v166c0 58 -13 86 -80 86h-76v-336zM204 615v106h106v-106h-106z" />
    <glyph glyph-name="dcroat.smcp" horiz-adv-x="538" 
d="M10 237v86h50v233h225c142 0 203 -49 203 -199v-158c0 -150 -56 -199 -198 -199h-230v237h-50zM196 110h76c67 0 80 27 80 84v166c0 58 -13 86 -80 86h-76v-123h64v-86h-64v-127z" />
    <glyph glyph-name="eth.smcp" horiz-adv-x="538" 
d="M10 237v86h50v233h225c142 0 203 -49 203 -199v-158c0 -150 -56 -199 -198 -199h-230v237h-50zM196 110h76c67 0 80 27 80 84v166c0 58 -13 86 -80 86h-76v-123h64v-86h-64v-127z" />
    <glyph glyph-name="eacute.smcp" horiz-adv-x="477" 
d="M394 332v-104h-198v-118h231v-110h-367v556h367v-110h-231v-114h198zM204 611l28 120h127l-72 -120h-83z" />
    <glyph glyph-name="egrave.smcp" horiz-adv-x="477" 
d="M394 332v-104h-198v-118h231v-110h-367v556h367v-110h-231v-114h198zM273 731l28 -120h-83l-72 120h127z" />
    <glyph glyph-name="ecircumflex.smcp" horiz-adv-x="477" 
d="M394 332v-104h-198v-118h231v-110h-367v556h367v-110h-231v-114h198zM325 731l54 -120h-88l-40 54l-39 -54h-88l54 120h147z" />
    <glyph glyph-name="edieresis.smcp" horiz-adv-x="477" 
d="M394 332v-104h-198v-118h231v-110h-367v556h367v-110h-231v-114h198zM112 615v106h106v-106h-106zM278 615v106h106v-106h-106z" />
    <glyph glyph-name="ecaron.smcp" horiz-adv-x="477" 
d="M394 332v-104h-198v-118h231v-110h-367v556h367v-110h-231v-114h198zM373 731l-54 -120h-147l-54 120h88l39 -54l40 54h88z" />
    <glyph glyph-name="emacron.smcp" horiz-adv-x="477" 
d="M394 332v-104h-198v-118h231v-110h-367v556h367v-110h-231v-114h198zM120 614v86h250v-86h-250z" />
    <glyph glyph-name="ebreve.smcp" horiz-adv-x="477" 
d="M394 332v-104h-198v-118h231v-110h-367v556h367v-110h-231v-114h198zM248 597c-85 0 -126 49 -126 134h78c0 -35 17 -53 48 -53s48 18 48 53h78c0 -85 -41 -134 -126 -134z" />
    <glyph glyph-name="eogonek.smcp" horiz-adv-x="477" 
d="M346 0h-286v556h367v-110h-231v-114h198v-104h-198v-118h231v-110c-26 -22 -42 -42 -42 -70c0 -19 13 -26 33 -26h9v-78h-57c-51 0 -84 22 -84 71c0 37 21 76 60 103z" />
    <glyph glyph-name="edotaccent.smcp" horiz-adv-x="477" 
d="M394 332v-104h-198v-118h231v-110h-367v556h367v-110h-231v-114h198zM190 615v106h106v-106h-106z" />
    <glyph glyph-name="fdotaccent.smcp" horiz-adv-x="448" 
d="M196 0h-136v556h348v-110h-212v-114h179v-104h-179v-228zM181 615v106h106v-106h-106z" />
    <glyph glyph-name="gcircumflex.smcp" horiz-adv-x="533" 
d="M50 189v178c0 142 74 201 216 201c165 0 208 -81 208 -191h-134c0 52 -14 81 -74 81c-54 0 -80 -18 -80 -88v-185c0 -63 26 -87 80 -87c60 0 76 27 76 66v65h-83v104h219v-333h-58l-17 42c-29 -35 -77 -54 -137 -54c-135 0 -216 54 -216 201zM340 731l54 -120h-88l-40 54
l-39 -54h-88l54 120h147z" />
    <glyph glyph-name="gbreve.smcp" horiz-adv-x="533" 
d="M50 189v178c0 142 74 201 216 201c165 0 208 -81 208 -191h-134c0 52 -14 81 -74 81c-54 0 -80 -18 -80 -88v-185c0 -63 26 -87 80 -87c60 0 76 27 76 66v65h-83v104h219v-333h-58l-17 42c-29 -35 -77 -54 -137 -54c-135 0 -216 54 -216 201zM266 597
c-85 0 -126 49 -126 134h78c0 -35 17 -53 48 -53s48 18 48 53h78c0 -85 -41 -134 -126 -134z" />
    <glyph glyph-name="gdotaccent.smcp" horiz-adv-x="533" 
d="M50 189v178c0 142 74 201 216 201c165 0 208 -81 208 -191h-134c0 52 -14 81 -74 81c-54 0 -80 -18 -80 -88v-185c0 -63 26 -87 80 -87c60 0 76 27 76 66v65h-83v104h219v-333h-58l-17 42c-29 -35 -77 -54 -137 -54c-135 0 -216 54 -216 201zM216 615v106h106v-106h-106z
" />
    <glyph glyph-name="gcommaaccent.smcp" horiz-adv-x="533" 
d="M50 189v178c0 142 74 201 216 201c165 0 208 -81 208 -191h-134c0 52 -14 81 -74 81c-54 0 -80 -18 -80 -88v-185c0 -63 26 -87 80 -87c60 0 76 27 76 66v65h-83v104h219v-333h-58l-17 42c-29 -35 -77 -54 -137 -54c-135 0 -216 54 -216 201zM172 -190l36 130h132
l-73 -130h-95z" />
    <glyph glyph-name="hcircumflex.smcp" horiz-adv-x="544" 
d="M484 556v-556h-136v228h-152v-228h-136v556h136v-224h152v224h136zM345 731l54 -120h-88l-40 54l-39 -54h-88l54 120h147z" />
    <glyph glyph-name="hbar.smcp" horiz-adv-x="544" 
d="M10 412v76h50v68h136v-68h152v68h136v-68h50v-76h-50v-412h-136v228h-152v-228h-136v412h-50zM196 332h152v80h-152v-80z" />
    <glyph glyph-name="iacute.smcp" horiz-adv-x="256" 
d="M60 0v556h136v-556h-136zM90 611l28 120h127l-72 -120h-83z" />
    <glyph glyph-name="igrave.smcp" horiz-adv-x="256" 
d="M60 0v556h136v-556h-136zM144 731l28 -120h-83l-72 120h127z" />
    <glyph glyph-name="icircumflex.smcp" horiz-adv-x="256" 
d="M60 0v556h136v-556h-136zM202 731l54 -120h-88l-40 54l-39 -54h-88l54 120h147z" />
    <glyph glyph-name="idieresis.smcp" horiz-adv-x="256" 
d="M60 0v556h136v-556h-136zM-8 615v106h106v-106h-106zM158 615v106h106v-106h-106z" />
    <glyph glyph-name="itilde.smcp" horiz-adv-x="256" 
d="M177 686c13 0 22 10 22 34h76c0 -92 -30 -120 -88 -120c-63 0 -70 46 -109 46c-13 0 -22 -10 -22 -34h-76c0 92 31 120 88 120c63 0 70 -46 109 -46zM60 0v556h136v-556h-136z" />
    <glyph glyph-name="imacron.smcp" horiz-adv-x="256" 
d="M13 614v86h230v-86h-230zM60 0v556h136v-556h-136z" />
    <glyph glyph-name="ibreve.smcp" horiz-adv-x="256" 
d="M60 0v556h136v-556h-136zM128 597c-85 0 -126 49 -126 134h78c0 -35 17 -53 48 -53s48 18 48 53h78c0 -85 -41 -134 -126 -134z" />
    <glyph glyph-name="iogonek.smcp" horiz-adv-x="256" 
d="M60 0v556h136v-556c-26 -22 -42 -42 -42 -70c0 -19 13 -26 33 -26h9v-78h-57c-51 0 -84 22 -84 71c0 37 21 76 60 103h-55z" />
    <glyph glyph-name="jcircumflex.smcp" horiz-adv-x="344" 
d="M148 446h-78v110h214v-425c0 -109 -49 -143 -139 -143c-35 0 -79 4 -105 12v112c31 -7 48 -10 69 -10c31 0 39 13 39 36v308zM245 731l54 -120h-88l-40 54l-39 -54h-88l54 120h147z" />
    <glyph glyph-name="kcommaaccent.smcp" horiz-adv-x="487" 
d="M196 232v-232h-136v556h136v-227l128 227h152l-171 -276l172 -280h-150zM164 -190l36 130h132l-73 -130h-95z" />
    <glyph glyph-name="lacute.smcp" horiz-adv-x="396" 
d="M60 0v556h136v-446h170v-110h-306zM90 611l28 120h127l-72 -120h-83z" />
    <glyph glyph-name="lcaron.smcp" horiz-adv-x="396" 
d="M238 372v204h102l-31 -204h-71zM60 0v556h136v-446h170v-110h-306z" />
    <glyph glyph-name="lcommaaccent.smcp" horiz-adv-x="396" 
d="M60 0v556h136v-446h170v-110h-306zM118 -190l36 130h132l-73 -130h-95z" />
    <glyph glyph-name="ldot.smcp" horiz-adv-x="396" 
d="M238 244v112h112v-112h-112zM60 0v556h136v-446h170v-110h-306z" />
    <glyph glyph-name="lslash.smcp" horiz-adv-x="396" 
d="M60 0v193l-60 -22v86l60 22v277h136v-226l103 39v-86l-103 -40v-133h170v-110h-306z" />
    <glyph glyph-name="mdotaccent.smcp" horiz-adv-x="694" 
d="M251 556l95 -386h2l95 386h191v-556h-134v230l5 182l-107 -412h-103l-106 412l5 -177v-235h-134v556h191zM294 615v106h106v-106h-106z" />
    <glyph glyph-name="nacute.smcp" horiz-adv-x="555" 
d="M495 556v-556h-169l-140 381v-381h-126v556h169l140 -381v381h126zM237 611l28 120h127l-72 -120h-83z" />
    <glyph glyph-name="ntilde.smcp" horiz-adv-x="555" 
d="M495 556v-556h-169l-140 381v-381h-126v556h169l140 -381v381h126zM329 696c19 0 31 10 31 32h78c0 -88 -30 -123 -94 -123c-58 0 -74 43 -119 43c-19 0 -31 -9 -31 -32h-78c0 90 30 123 94 123c58 0 76 -43 119 -43z" />
    <glyph glyph-name="ncaron.smcp" horiz-adv-x="555" 
d="M495 556v-556h-169l-140 381v-381h-126v556h169l140 -381v381h126zM405 731l-54 -120h-147l-54 120h88l39 -54l40 54h88z" />
    <glyph glyph-name="ncommaaccent.smcp" horiz-adv-x="555" 
d="M495 556v-556h-169l-140 381v-381h-126v556h169l140 -381v381h126zM198 -190l36 130h132l-73 -130h-95z" />
    <glyph glyph-name="eng.smcp" horiz-adv-x="555" 
d="M495 556v-595c0 -109 -49 -143 -139 -143c-35 0 -79 4 -105 12v112c31 -7 48 -10 69 -10c31 0 39 13 39 36l-177 428c2 -45 4 -104 4 -151v-245h-126v556h169l145 -355c-3 42 -5 106 -5 166v189h126z" />
    <glyph glyph-name="oacute.smcp" horiz-adv-x="526" 
d="M486 357v-157c0 -156 -71 -212 -223 -212c-151 0 -223 56 -223 212v157c0 156 72 211 223 211c152 0 223 -55 223 -211zM350 198v161c0 75 -25 99 -87 99s-87 -24 -87 -99v-161c0 -75 25 -100 87 -100s87 25 87 100zM223 611l28 120h127l-72 -120h-83z" />
    <glyph glyph-name="ograve.smcp" horiz-adv-x="526" 
d="M486 357v-157c0 -156 -71 -212 -223 -212c-151 0 -223 56 -223 212v157c0 156 72 211 223 211c152 0 223 -55 223 -211zM350 198v161c0 75 -25 99 -87 99s-87 -24 -87 -99v-161c0 -75 25 -100 87 -100s87 25 87 100zM289 731l28 -120h-83l-72 120h127z" />
    <glyph glyph-name="ocircumflex.smcp" horiz-adv-x="526" 
d="M486 357v-157c0 -156 -71 -212 -223 -212c-151 0 -223 56 -223 212v157c0 156 72 211 223 211c152 0 223 -55 223 -211zM350 198v161c0 75 -25 99 -87 99s-87 -24 -87 -99v-161c0 -75 25 -100 87 -100s87 25 87 100zM336 731l54 -120h-88l-40 54l-39 -54h-88l54 120h147z
" />
    <glyph glyph-name="odieresis.smcp" horiz-adv-x="526" 
d="M486 357v-157c0 -156 -71 -212 -223 -212c-151 0 -223 56 -223 212v157c0 156 72 211 223 211c152 0 223 -55 223 -211zM350 198v161c0 75 -25 99 -87 99s-87 -24 -87 -99v-161c0 -75 25 -100 87 -100s87 25 87 100zM127 615v106h106v-106h-106zM293 615v106h106v-106
h-106z" />
    <glyph glyph-name="otilde.smcp" horiz-adv-x="526" 
d="M486 357v-157c0 -156 -71 -212 -223 -212c-151 0 -223 56 -223 212v157c0 156 72 211 223 211c152 0 223 -55 223 -211zM350 198v161c0 75 -25 99 -87 99s-87 -24 -87 -99v-161c0 -75 25 -100 87 -100s87 25 87 100zM315 696c19 0 31 10 31 32h78
c0 -88 -30 -123 -94 -123c-58 0 -74 43 -119 43c-19 0 -31 -9 -31 -32h-78c0 90 30 123 94 123c58 0 76 -43 119 -43z" />
    <glyph glyph-name="obreve.smcp" horiz-adv-x="526" 
d="M486 357v-157c0 -156 -71 -212 -223 -212c-151 0 -223 56 -223 212v157c0 156 72 211 223 211c152 0 223 -55 223 -211zM350 198v161c0 75 -25 99 -87 99s-87 -24 -87 -99v-161c0 -75 25 -100 87 -100s87 25 87 100zM263 597c-85 0 -126 49 -126 134h78
c0 -35 17 -53 48 -53s48 18 48 53h78c0 -85 -41 -134 -126 -134z" />
    <glyph glyph-name="omacron.smcp" horiz-adv-x="526" 
d="M486 357v-157c0 -156 -71 -212 -223 -212c-151 0 -223 56 -223 212v157c0 156 72 211 223 211c152 0 223 -55 223 -211zM350 198v161c0 75 -25 99 -87 99s-87 -24 -87 -99v-161c0 -75 25 -100 87 -100s87 25 87 100zM138 614v86h250v-86h-250z" />
    <glyph glyph-name="ohungarumlaut.smcp" horiz-adv-x="526" 
d="M486 357v-157c0 -156 -71 -212 -223 -212c-151 0 -223 56 -223 212v157c0 156 72 211 223 211c152 0 223 -55 223 -211zM350 198v161c0 75 -25 99 -87 99s-87 -24 -87 -99v-161c0 -75 25 -100 87 -100s87 25 87 100zM152 611l18 120h117l-52 -120h-83zM295 611l38 120
h117l-72 -120h-83z" />
    <glyph glyph-name="oslash.smcp" horiz-adv-x="526" 
d="M40 -20l42 68c-28 34 -42 83 -42 152v157c0 156 72 211 223 211c52 0 96 -7 129 -22l19 30h75l-42 -68c28 -33 42 -82 42 -151v-157c0 -156 -71 -212 -223 -212c-52 0 -95 7 -129 22l-18 -30h-76zM176 359v-161l150 242c-14 13 -35 18 -63 18c-62 0 -87 -24 -87 -99z
M350 198v159l-150 -241c14 -13 34 -18 63 -18c62 0 87 25 87 100z" />
    <glyph glyph-name="oe.smcp" horiz-adv-x="767" 
d="M350 446h-87c-62 0 -87 -24 -87 -99v-137c0 -75 25 -100 87 -100h87v336zM717 0h-454c-151 0 -223 56 -223 212v133c0 156 72 211 223 211h454v-110h-231v-114h198v-104h-198v-118h231v-110z" />
    <glyph glyph-name="thorn.smcp" horiz-adv-x="501" 
d="M335 278c0 48 -16 74 -71 74h-68v-148h68c55 0 71 26 71 74zM196 462h70c147 0 205 -45 205 -184s-58 -184 -205 -184h-70v-94h-136v556h136v-94z" />
    <glyph glyph-name="pdotaccent.smcp" horiz-adv-x="501" 
d="M60 0v556h206c141 0 205 -48 205 -181c0 -138 -64 -185 -205 -185h-70v-190h-136zM196 446v-152h71c51 0 68 28 68 78c0 48 -16 74 -71 74h-68zM197 615v106h106v-106h-106z" />
    <glyph glyph-name="racute.smcp" horiz-adv-x="517" 
d="M380 203l107 -203h-140l-97 190h-54v-190h-136v556h202c147 0 213 -47 213 -180c0 -101 -39 -150 -95 -173zM196 446v-152h68c53 0 75 25 75 78s-22 74 -75 74h-68zM198 611l28 120h127l-72 -120h-83z" />
    <glyph glyph-name="rcaron.smcp" horiz-adv-x="517" 
d="M380 203l107 -203h-140l-97 190h-54v-190h-136v556h202c147 0 213 -47 213 -180c0 -101 -39 -150 -95 -173zM196 446v-152h68c53 0 75 25 75 78s-22 74 -75 74h-68zM386 731l-54 -120h-147l-54 120h88l39 -54l40 54h88z" />
    <glyph glyph-name="rcommaaccent.smcp" horiz-adv-x="517" 
d="M380 203l107 -203h-140l-97 190h-54v-190h-136v556h202c147 0 213 -47 213 -180c0 -101 -39 -150 -95 -173zM196 446v-152h68c53 0 75 25 75 78s-22 74 -75 74h-68zM165 -190l36 130h132l-73 -130h-95z" />
    <glyph glyph-name="sacute.smcp" horiz-adv-x="514" 
d="M256 99c65 0 82 22 82 62c0 46 -23 60 -94 70c-145 20 -199 58 -199 174c0 104 67 163 209 163c157 0 207 -60 207 -175h-134c0 46 -19 65 -75 65c-49 0 -71 -20 -71 -59c0 -50 32 -61 88 -70c175 -28 205 -66 205 -170c0 -100 -70 -170 -218 -170
c-168 0 -221 63 -221 181h136c0 -48 15 -71 85 -71zM219 611l28 120h127l-72 -120h-83z" />
    <glyph glyph-name="scircumflex.smcp" horiz-adv-x="514" 
d="M256 99c65 0 82 22 82 62c0 46 -23 60 -94 70c-145 20 -199 58 -199 174c0 104 67 163 209 163c157 0 207 -60 207 -175h-134c0 46 -19 65 -75 65c-49 0 -71 -20 -71 -59c0 -50 32 -61 88 -70c175 -28 205 -66 205 -170c0 -100 -70 -170 -218 -170
c-168 0 -221 63 -221 181h136c0 -48 15 -71 85 -71zM330 731l54 -120h-88l-40 54l-39 -54h-88l54 120h147z" />
    <glyph glyph-name="scaron.smcp" horiz-adv-x="514" 
d="M256 99c65 0 82 22 82 62c0 46 -23 60 -94 70c-145 20 -199 58 -199 174c0 104 67 163 209 163c157 0 207 -60 207 -175h-134c0 46 -19 65 -75 65c-49 0 -71 -20 -71 -59c0 -50 32 -61 88 -70c175 -28 205 -66 205 -170c0 -100 -70 -170 -218 -170
c-168 0 -221 63 -221 181h136c0 -48 15 -71 85 -71zM384 731l-54 -120h-147l-54 120h88l39 -54l40 54h88z" />
    <glyph glyph-name="sdotaccent.smcp" horiz-adv-x="514" 
d="M256 99c65 0 82 22 82 62c0 46 -23 60 -94 70c-145 20 -199 58 -199 174c0 104 67 163 209 163c157 0 207 -60 207 -175h-134c0 46 -19 65 -75 65c-49 0 -71 -20 -71 -59c0 -50 32 -61 88 -70c175 -28 205 -66 205 -170c0 -100 -70 -170 -218 -170
c-168 0 -221 63 -221 181h136c0 -48 15 -71 85 -71zM204 615v106h106v-106h-106z" />
    <glyph glyph-name="scedilla.smcp" horiz-adv-x="514" 
d="M256 99c65 0 82 26 82 62c0 46 -23 60 -94 70c-145 20 -199 58 -199 174c0 104 67 163 209 163c157 0 207 -60 207 -175h-134c0 43 -19 65 -75 65c-49 0 -71 -20 -71 -59c0 -50 32 -61 88 -70c175 -28 205 -66 205 -170c0 -95 -63 -162 -195 -169l-9 -31
c43 -5 72 -24 72 -74c0 -58 -29 -86 -111 -86h-69v62h67c28 0 35 8 35 24c0 17 -7 24 -35 24h-33l25 81c-141 9 -186 70 -186 180h136c0 -41 12 -71 85 -71z" />
    <glyph glyph-name="scommaaccent.smcp" horiz-adv-x="514" 
d="M256 99c65 0 82 22 82 62c0 46 -23 60 -94 70c-145 20 -199 58 -199 174c0 104 67 163 209 163c157 0 207 -60 207 -175h-134c0 46 -19 65 -75 65c-49 0 -71 -20 -71 -59c0 -50 32 -61 88 -70c175 -28 205 -66 205 -170c0 -100 -70 -170 -218 -170
c-168 0 -221 63 -221 181h136c0 -48 15 -71 85 -71zM157 -190l36 130h132l-73 -130h-95z" />
    <glyph glyph-name="germandbls.smcp" horiz-adv-x="1028" 
d="M256 99c65 0 82 22 82 62c0 46 -23 60 -94 70c-145 20 -199 58 -199 174c0 104 67 163 209 163c157 0 207 -60 207 -175h-134c0 46 -19 65 -75 65c-49 0 -71 -20 -71 -59c0 -50 32 -61 88 -70c175 -28 205 -66 205 -170c0 -100 -70 -170 -218 -170
c-168 0 -221 63 -221 181h136c0 -48 15 -71 85 -71zM770 99c65 0 82 22 82 62c0 46 -23 60 -94 70c-145 20 -199 58 -199 174c0 104 67 163 209 163c157 0 207 -60 207 -175h-134c0 46 -19 65 -75 65c-49 0 -71 -20 -71 -59c0 -50 32 -61 88 -70c175 -28 205 -66 205 -170
c0 -100 -70 -170 -218 -170c-168 0 -221 63 -221 181h136c0 -48 15 -71 85 -71z" />
    <glyph glyph-name="tcaron.smcp" horiz-adv-x="438" 
d="M151 0v446h-131v110h398v-110h-131v-446h-136zM346 731l-54 -120h-147l-54 120h88l39 -54l40 54h88z" />
    <glyph glyph-name="tdotaccent.smcp" horiz-adv-x="438" 
d="M151 0v446h-131v110h398v-110h-131v-446h-136zM166 615v106h106v-106h-106z" />
    <glyph glyph-name="tcommaaccent.smcp" horiz-adv-x="438" 
d="M151 0v446h-131v110h398v-110h-131v-446h-136zM118 -190l36 130h132l-73 -130h-95z" />
    <glyph glyph-name="tbar.smcp" horiz-adv-x="438" 
d="M64 206v86h87v154h-131v110h398v-110h-131v-154h87v-86h-87v-206h-136v206h-87z" />
    <glyph glyph-name="uacute.smcp" horiz-adv-x="534" 
d="M55 556h136v-377c0 -57 19 -81 76 -81s76 24 76 81v377h136v-377c0 -144 -72 -190 -212 -190s-212 46 -212 190v377zM223 611l28 120h127l-72 -120h-83z" />
    <glyph glyph-name="ugrave.smcp" horiz-adv-x="534" 
d="M55 556h136v-377c0 -57 19 -81 76 -81s76 24 76 81v377h136v-377c0 -144 -72 -190 -212 -190s-212 46 -212 190v377zM284 731l28 -120h-83l-72 120h127z" />
    <glyph glyph-name="ucircumflex.smcp" horiz-adv-x="534" 
d="M55 556h136v-377c0 -57 19 -81 76 -81s76 24 76 81v377h136v-377c0 -144 -72 -190 -212 -190s-212 46 -212 190v377zM340 731l54 -120h-88l-40 54l-39 -54h-88l54 120h147z" />
    <glyph glyph-name="udieresis.smcp" horiz-adv-x="534" 
d="M55 556h136v-377c0 -57 19 -81 76 -81s76 24 76 81v377h136v-377c0 -144 -72 -190 -212 -190s-212 46 -212 190v377zM131 615v106h106v-106h-106zM297 615v106h106v-106h-106z" />
    <glyph glyph-name="utilde.smcp" horiz-adv-x="534" 
d="M55 556h136v-377c0 -57 19 -81 76 -81s76 24 76 81v377h136v-377c0 -144 -72 -190 -212 -190s-212 46 -212 190v377zM319 696c19 0 31 10 31 32h78c0 -88 -30 -123 -94 -123c-58 0 -74 43 -119 43c-19 0 -31 -9 -31 -32h-78c0 90 30 123 94 123c58 0 76 -43 119 -43z" />
    <glyph glyph-name="uring.smcp" horiz-adv-x="534" 
d="M55 556h136v-377c0 -57 19 -81 76 -81s76 24 76 81v377h136v-377c0 -144 -72 -190 -212 -190s-212 46 -212 190v377zM267 786c70 0 111 -31 111 -93s-41 -95 -111 -95s-111 33 -111 95s41 93 111 93zM267 656c27 0 39 13 39 37c0 22 -12 35 -39 35s-39 -13 -39 -35
c0 -24 12 -37 39 -37z" />
    <glyph glyph-name="ubreve.smcp" horiz-adv-x="534" 
d="M55 556h136v-377c0 -57 19 -81 76 -81s76 24 76 81v377h136v-377c0 -144 -72 -190 -212 -190s-212 46 -212 190v377zM267 597c-85 0 -126 49 -126 134h78c0 -35 17 -53 48 -53s48 18 48 53h78c0 -85 -41 -134 -126 -134z" />
    <glyph glyph-name="umacron.smcp" horiz-adv-x="534" 
d="M55 556h136v-377c0 -57 19 -81 76 -81s76 24 76 81v377h136v-377c0 -144 -72 -190 -212 -190s-212 46 -212 190v377zM140 614v86h250v-86h-250z" />
    <glyph glyph-name="uhungarumlaut.smcp" horiz-adv-x="534" 
d="M55 556h136v-377c0 -57 19 -81 76 -81s76 24 76 81v377h136v-377c0 -144 -72 -190 -212 -190s-212 46 -212 190v377zM150 611l18 120h117l-52 -120h-83zM293 611l38 120h117l-72 -120h-83z" />
    <glyph glyph-name="uogonek.smcp" horiz-adv-x="534" 
d="M55 556h136v-377c0 -57 19 -81 76 -81s76 24 76 81v377h136v-377c0 -111 -43 -164 -126 -182c-24 -21 -38 -40 -38 -67c0 -19 13 -26 33 -26h9v-78h-57c-51 0 -84 22 -84 71c0 32 15 66 45 92c-136 1 -206 48 -206 190v377z" />
    <glyph glyph-name="wacute.smcp" horiz-adv-x="768" 
d="M309 556h150l76 -412h2l63 412h138l-115 -556h-165l-74 432l-74 -432h-165l-115 556h138l63 -412h2zM344 611l28 120h127l-72 -120h-83z" />
    <glyph glyph-name="wgrave.smcp" horiz-adv-x="768" 
d="M309 556h150l76 -412h2l63 412h138l-115 -556h-165l-74 432l-74 -432h-165l-115 556h138l63 -412h2zM398 731l28 -120h-83l-72 120h127z" />
    <glyph glyph-name="wcircumflex.smcp" horiz-adv-x="768" 
d="M309 556h150l76 -412h2l63 412h138l-115 -556h-165l-74 432l-74 -432h-165l-115 556h138l63 -412h2zM457 731l54 -120h-88l-40 54l-39 -54h-88l54 120h147z" />
    <glyph glyph-name="wdieresis.smcp" horiz-adv-x="768" 
d="M309 556h150l76 -412h2l63 412h138l-115 -556h-165l-74 432l-74 -432h-165l-115 556h138l63 -412h2zM248 615v106h106v-106h-106zM414 615v106h106v-106h-106z" />
    <glyph glyph-name="yacute.smcp" horiz-adv-x="465" 
d="M165 0v203l-150 353h144l73 -230h2l73 230h143l-149 -353v-203h-136zM190 611l28 120h127l-72 -120h-83z" />
    <glyph glyph-name="ygrave.smcp" horiz-adv-x="465" 
d="M165 0v203l-150 353h144l73 -230h2l73 230h143l-149 -353v-203h-136zM247 731l28 -120h-83l-72 120h127z" />
    <glyph glyph-name="ycircumflex.smcp" horiz-adv-x="465" 
d="M165 0v203l-150 353h144l73 -230h2l73 230h143l-149 -353v-203h-136zM306 731l54 -120h-88l-40 54l-39 -54h-88l54 120h147z" />
    <glyph glyph-name="ydieresis.smcp" horiz-adv-x="465" 
d="M165 0v203l-150 353h144l73 -230h2l73 230h143l-149 -353v-203h-136zM96 615v106h106v-106h-106zM262 615v106h106v-106h-106z" />
    <glyph glyph-name="zacute.smcp" horiz-adv-x="481" 
d="M55 446v110h376v-88l-223 -358h233v-110h-391v87l223 359h-218zM192 611l28 120h127l-72 -120h-83z" />
    <glyph glyph-name="zcaron.smcp" horiz-adv-x="481" 
d="M55 446v110h376v-88l-223 -358h233v-110h-391v87l223 359h-218zM368 731l-54 -120h-147l-54 120h88l39 -54l40 54h88z" />
    <glyph glyph-name="zdotaccent.smcp" horiz-adv-x="481" 
d="M55 446v110h376v-88l-223 -358h233v-110h-391v87l223 359h-218zM187 615v106h106v-106h-106z" />
    </font>
</defs>
</svg>
